Сегодня идет свободное скачивание без начисления Download

Взаперти / Тюряга / Lock Up (Джон Флинн) [1989 г., боевик, драма, криминал, HDRip]

Ответить на тему
 
Автор
Сообщение

Region_13 ®

Пол:

Стаж: 2 года 10 месяцев

Сообщений: 923

Откуда: Мальдивы

Торрент-статистика

Пост 20-Ноя-2015 22:02

[Цитировать]

Взаперти / Тюряга / Lock Up
Год выпуска: 1989
Страна: США
Жанр: боевик, драма, криминал
Продолжительность: 109 мин. / 01:49
Перевод: Профессиональный (многоголосый закадровый)
Режиссер: Джон Флинн
Продюссер: Чарльз Гордон, Лоуренс Гордон, Майкл С. Глик
Сценарий: Ричард Смит, Джеб Стюарт, Генри Розенбаум
Бюджет: $24 000 000
Премьера в мире: 4 августа 1989
лицам до 17 лет обязательно присутствие взрослого


В ролях: Сильвестр Сталлоне, Дональд Сазерленд, Джон Эймос, Сонни Лэндэм, Том Сайзмор, Фрэнк МакРей, Дарлэнн Флюгел, Уильям Аллен Янг, Ларри Романо, Джордан Лунд

Описание: Свободолюбивый Фрэнк Леоне, борец за справедливость, оказавшийся в тюрьме, уверен, что через несколько месяцев покинет ее стены. Он — примерный заключенный, но некоторые тюремщики до сих пор помнят совершенный им побег, закончившийся дополнительным сроком для Фрэнка и испорченной карьерой директора колонии. Пострадавший директор давно «имеет зуб» на него, поэтому в одно чудесное утро героя неожиданно переводят в другую тюрьму, настоящий ад, где служит начальником тот самый Уорден Драмгул. На его послужном списке теперь пятно по вине Фрэнка, и поэтому он клянется устроить заключенному Леоне веселую жизнь, спровоцировать того на побег и доказать, что ненавистный ему зек неисправим. Драмгул — настоящий диктатор в колонии, приказы которого беспрекословно исполняются охранниками и арестантами, и теперь он желает, чтобы Фрэнк как можно дольше задержался в стенах тюрьмы Гетвей.

Качество: HDRip
Формат: AVI
Видео кодек: XviD
Аудио кодек: AC3
Видео: 1449 Кбит/с, 704x384, 24 кадр/с
Аудио: АС3, 6 ch, 448 Кбит/с

Скриншоты

               

Доп. информация

Фильм снимался с участием полутора тысяч настоящих заключённых из колонии «Ист Джерси Стейт Призон».

MediaINFO

Общее
Полное имя : E:\Vzaperti.(Tjurjaga).1989.(HDRip).avi
Формат : AVI
Формат/Информация : Audio Video Interleave
Размер файла : 1,45 Гбайт
Продолжительность : 1 ч. 48 м.
Общий поток : 1907 Кбит/сек
Название фильма : Взаперти / Тюряга
Режиссёр : Уокер
Программа кодирования : VirtualDubMod 1.5.10.2 (build 2540/release)
Видео
Идентификатор : 0
Формат : MPEG-4 Visual
Профиль формата : Advanced [email protected]
Параметр BVOP формата : 2
Параметр QPel формата : Нет
Параметр GMC формата : Без точки перехода
Параметр матрицы формата : Default (MPEG)
Идентификатор кодека : XVID
Идентификатор кодека/Подсказка : XviD
Продолжительность : 1 ч. 48 м.
Битрейт : 1449 Кбит/сек
Ширина : 704 пикселя
Высота : 384 пикселя
Соотношение сторон : 1,85:1
Частота кадров : 24,000 кадра/сек
Цветовое пространство : YUV
Субдискретизация насыщенности : 4:2:0
Битовая глубина : 8 бит
Тип развёртки : Прогрессивная
Метод сжатия : С потерями
Бит/(Пиксели*Кадры) : 0.223
Размер потока : 1,10 Гбайт (76%)
Библиотека кодирования : XviD 1.2.1 (UTC 2008-12-04)
Аудио
Идентификатор : 1
Формат : AC-3
Формат/Информация : Audio Coding 3
Расширение режима : CM (complete main)
Параметр Endianness формата : Big
Идентификатор кодека : 2000
Продолжительность : 1 ч. 48 м.
Вид битрейта : Постоянный
Битрейт : 448 Кбит/сек
Каналы : 6 каналов
Расположение каналов : Front: L C R, Side: L R, LFE
Частота : 48,0 КГц
Метод сжатия : С потерями
Размер потока : 349 Мбайт (23%)
Выравнивание : Разделение по промежуткам
Продолжительность промежутка : 42 мс. (1,00 видеокадр)
Время предзагрузки промежутка : 500 мс.

_________________
Вне форума [Профиль] [ЛС]
Показать сообщения:    
Ответить на тему

Текущее время: Сегодня 10:58

Часовой пояс: GMT + 3



Вы не можете начинать темы
Вы не можете отвечать на сообщения
Вы не можете редактировать свои сообщения
Вы не можете удалять свои сообщения
Вы не можете голосовать в опросах
Вы не можете прикреплять файлы к сообщениям
Вы не можете скачивать файлы