Today is a free download without charge Download

(Progressive Rock) [CD] VA - The Progressive Rock Box Set 6CDs - 2015, FLAC (image+.cue), lossless

Reply to topic
 
Author
Message

Omen ®

Longevity: 7 years

Posts: 181090

Торрент-статистика

Post 28-Nov-2015 18:58

[Quote]

The Progressive Rock Box Set 6CDs
Жанр: Progressive Rock
Носитель: CD
Страна-производитель диска (релиза): Мексика
Год издания: 2015
Издатель (лейбл): Music Brokers
Номер по каталогу: MMB7196
Аудиокодек: FLAC (*.flac)
Тип рипа: image+.cue
Битрейт аудио: lossless
Продолжительность: 06:41:00
Источник (релизер): Собственный рип
Наличие сканов в содержимом раздачи: да

Треклист

CD 1

Disc One
Throwing Melodies To The Stars
1. Please Don`t Touch – Steve Hackett
2. Celebration – Premiata Forneria Marconi
3. Living In The Past – Ian Anderson (Jethro Tull)
4. No Mule`s Fool – Family
5. Catherine Howard – Rick Wakeman
6. Breathe – Adrian Belew (King Crimson) & Alan White (Yes)
7. Tomorrow Night – Atomic Rooster
8. Los Endos – Patrick Moraz (Yes/Moody Blues)
9. Run Like Hell – Keith Emerson & Dweezil Zappa
10. You Keep Me Hangin`on – Vanilla Fudge
11. The Great Gig In The Sky – Steve Howe & Rick Wakeman
12. Skating Away On The Thin Ice Of The New Day – Ian Anderson (Jethro Tull)

CD 2

Disc Two
Tomorrow Is Today
1. In The land Of Grey And Pink – Caravan
2. Song Of Aeolus – Soft Machine
3. Going For A Song – Hatfield And The North
4. Bundles – Soft Machine
5. Outer Vision – Gong
6. Brainstorm – Hawkwind
7. All Gates Open – Can
8. Ultima Thule Part 1 – Tangerine Dream
9. Ultima Thule Part 2 – Tangerine Dream
10. SumpFige Wasser – Amon Guru
11. Egyptian Kings – Brainticket
12. November – Can[/pre]

CD 3

Disc Three
Painting The Sky In Your Mind
1. From Under – Premiata Forneria Marconi
2. L`Alberto Del Pane – Banco Del Mutuo Soccorso
3. Orange Blossom Special – Fairport Convention
4. A House Of Hopes And Dreams – Peter Sinfield
5. In My Own Time – Family
6. Three Sisters – Affinity
7. Bullfight – Carmen
8. Death Walks Behind You – Atomic Rooster
9. Cosmic Wheel – Third Ear Band
10. Can-Utility And The Coastliners – Brand X
11. McAlpine Versus The Asmoto – Principal Edwards Magic Theatre
12. Eclipse – John Wetton (King Crimson), Peter Banks & Tony Kaye (Yes)[/pre]

CD 4

Disc Four
Little Particles Of Science
1. The Technical Divide – The Prog Collective Feat. Alan Parsons & Chris Squire
2. Red – The Crimson Projekct
3. Hocus Pocus – Focus
4. Buried Beneath – The Prog Collective Feat. Steve Hillage
5. Good Day – Nektar
6. Bedside Manners Are Extra – Greenslade
7. Black Crow – Linda Hoyle (Affinity)
8. If I Could Do It All Over Again, I`d Do It All Over You – Caravan
9. Lady Eleanor – Lindisfarne
10. A Whinter Shade Of Pale – Procol Harum
11. Space Is Deep – Hawkwind
12. Sunset In The Fifth System - Tangerine Dream[/pre]

CD 5

Disc Five
Swimming In The Seas Of Uranus
1. America – The Nice
2. Lifetime – Flash (Peter Banks)
3. Friday The 13th – Atomic Rooster Feat. Carl Palmer
4. Random Acts Of Science – Jerry Goodman & Rick Wakeman
5. Firth Of Fifth – Steve Hackett Feat. John Wetton
6. Lummy Days – Stackridge
7. Which way The Wind Blows – Anthony Phillips Feat. Phil Collins
8. The Wizard – Ken Hensley (Uriah Heep)
9. Of Kith & Kin – Peter Hammill & Gary Lucas
10. Cactus Choir – Dave Greenslade
11. Vivaldi – Curved Air
12. Love 74 – Stone The Crows[/pre]

CD 6

Disc Six
Close To The Heights Of Perception
1. House Of The King – Focus
2. The Water – United Progressive Fraternity Feat. Jon Anderson
3. Just Another Day – The Prog Collective Feat. Tony Kaye
4. The Serpent – Genesis
5. What Can Be Done – John Wetton
6. Lark`s Tongues In Aspic –Part Two – The Crimson Projekct
7. Radagacuca – Brainticket
8. Improvisation On An Indian Scale – Clark Hutchinson
9. Stay Human – Curved Air
10. You Time Starts Now – Van Der Graaf Generator
11. Circle Of Hands – Ken Hensley (Uriah Heep)
12. Viva Mi Sevilla - Carmen[/pre]

Лог создания рипа

CD 1

Exact Audio Copy V1.0 beta 3 from 29. August 2011
EAC extraction logfile from 25. November 2015, 21:46
Various Artists / The Progressive Rock Box Set - CD1
Used drive : MATSHITADVD-RAM UJ890AS Adapter: 0 ID: 1
Read mode : Secure
Utilize accurate stream : Yes
Defeat audio cache : Yes
Make use of C2 pointers : No
Read offset correction : 102
Overread into Lead-In and Lead-Out : No
Fill up missing offset samples with silence : Yes
Delete leading and trailing silent blocks : No
Null samples used in CRC calculations : Yes
Used interface : Native Win32 interface for Win NT & 2000
Used output format : Internal WAV Routines
Sample format : 44.100 Hz; 16 Bit; Stereo
TOC of the extracted CD
Track | Start | Length | Start sector | End sector
---------------------------------------------------------
1 | 0:00.00 | 3:59.28 | 0 | 17952
2 | 3:59.28 | 3:50.65 | 17953 | 35267
3 | 7:50.18 | 4:40.09 | 35268 | 56276
4 | 12:30.27 | 3:17.46 | 56277 | 71097
5 | 15:47.73 | 9:13.37 | 71098 | 112609
6 | 25:01.35 | 4:40.28 | 112610 | 133637
7 | 29:41.63 | 4:48.18 | 133638 | 155255
8 | 34:30.06 | 5:58.56 | 155256 | 182161
9 | 40:28.62 | 5:07.65 | 182162 | 205251
10 | 45:36.52 | 3:44.46 | 205252 | 222097
11 | 49:21.23 | 4:38.65 | 222098 | 243012
12 | 54:00.13 | 3:39.65 | 243013 | 259502
Range status and errors
Selected range
Filename G:\D\Загрузка\The Progressive Rock Box Set 6CDs\CD1\Various Artists - The Progressive Rock Box Set - CD1.wav
Peak level 100.0 %
Extraction speed 2.5 X
Range quality 100.0 %
Test CRC 31F51D02
Copy CRC 31F51D02
Copy OK
No errors occurred
AccurateRip summary
Track 1 accurately ripped (confidence 2) [FF1412DB] (AR v2)
Track 2 accurately ripped (confidence 2) [F0CAD3E3] (AR v2)
Track 3 accurately ripped (confidence 2) [4601F7FB] (AR v2)
Track 4 accurately ripped (confidence 2) [7ABF8A2D] (AR v2)
Track 5 accurately ripped (confidence 2) [0829E753] (AR v2)
Track 6 accurately ripped (confidence 2) [DB4555F0] (AR v2)
Track 7 accurately ripped (confidence 2) [E644E8FE] (AR v2)
Track 8 accurately ripped (confidence 2) [CB05A9EF] (AR v2)
Track 9 accurately ripped (confidence 2) [719E9450] (AR v2)
Track 10 accurately ripped (confidence 2) [32B53F4C] (AR v2)
Track 11 accurately ripped (confidence 2) [A9B90CF6] (AR v2)
Track 12 accurately ripped (confidence 2) [27283E81] (AR v2)
All tracks accurately ripped
End of status report

CD 2

Exact Audio Copy V1.0 beta 3 from 29. August 2011
EAC extraction logfile from 25. November 2015, 22:40
Various Artists / The Progressive Rock Box Set - CD2
Used drive : MATSHITADVD-RAM UJ890AS Adapter: 0 ID: 1
Read mode : Secure
Utilize accurate stream : Yes
Defeat audio cache : Yes
Make use of C2 pointers : No
Read offset correction : 102
Overread into Lead-In and Lead-Out : No
Fill up missing offset samples with silence : Yes
Delete leading and trailing silent blocks : No
Null samples used in CRC calculations : Yes
Used interface : Native Win32 interface for Win NT & 2000
Used output format : Internal WAV Routines
Sample format : 44.100 Hz; 16 Bit; Stereo
TOC of the extracted CD
Track | Start | Length | Start sector | End sector
---------------------------------------------------------
1 | 0:00.00 | 4:24.37 | 0 | 19836
2 | 4:24.37 | 4:22.56 | 19837 | 39542
3 | 8:47.18 | 4:03.18 | 39543 | 57785
4 | 12:50.36 | 3:16.00 | 57786 | 72485
5 | 16:06.36 | 3:25.00 | 72486 | 87860
6 | 19:31.36 | 8:26.37 | 87861 | 125847
7 | 27:57.73 | 8:11.37 | 125848 | 162709
8 | 36:09.35 | 3:20.56 | 162710 | 177765
9 | 39:30.16 | 4:06.00 | 177766 | 196215
10 | 43:36.16 | 5:44.37 | 196216 | 222052
11 | 49:20.53 | 5:49.56 | 222053 | 248283
12 | 55:10.34 | 7:41.42 | 248284 | 282900
Range status and errors
Selected range
Filename G:\D\Загрузка\The Progressive Rock Box Set 6CDs\CD2\Various Artists - The Progressive Rock Box Set - CD2.wav
Peak level 100.0 %
Extraction speed 2.6 X
Range quality 100.0 %
Test CRC DBB409F2
Copy CRC DBB409F2
Copy OK
No errors occurred
AccurateRip summary
Track 1 accurately ripped (confidence 2) [DB96ABB6] (AR v2)
Track 2 accurately ripped (confidence 2) [9B866BE4] (AR v2)
Track 3 accurately ripped (confidence 2) [6E9D3BD9] (AR v2)
Track 4 accurately ripped (confidence 2) [C4CABE56] (AR v2)
Track 5 accurately ripped (confidence 2) [88EEF1F8] (AR v2)
Track 6 accurately ripped (confidence 2) [12A0CBF6] (AR v2)
Track 7 accurately ripped (confidence 2) [8CBB47A3] (AR v2)
Track 8 accurately ripped (confidence 2) [D640FD41] (AR v2)
Track 9 accurately ripped (confidence 2) [2539885F] (AR v2)
Track 10 accurately ripped (confidence 2) [B332ADA0] (AR v2)
Track 11 accurately ripped (confidence 2) [DD4942F0] (AR v2)
Track 12 accurately ripped (confidence 2) [CD4E8B20] (AR v2)
All tracks accurately ripped
End of status report

CD 3

Exact Audio Copy V1.0 beta 3 from 29. August 2011
EAC extraction logfile from 25. November 2015, 23:45
Various Artists / The Progressive Rock Box Set - CD3
Used drive : MATSHITADVD-RAM UJ890AS Adapter: 0 ID: 1
Read mode : Secure
Utilize accurate stream : Yes
Defeat audio cache : Yes
Make use of C2 pointers : No
Read offset correction : 102
Overread into Lead-In and Lead-Out : No
Fill up missing offset samples with silence : Yes
Delete leading and trailing silent blocks : No
Null samples used in CRC calculations : Yes
Used interface : Native Win32 interface for Win NT & 2000
Used output format : Internal WAV Routines
Sample format : 44.100 Hz; 16 Bit; Stereo
TOC of the extracted CD
Track | Start | Length | Start sector | End sector
---------------------------------------------------------
1 | 0:00.00 | 7:21.46 | 0 | 33120
2 | 7:21.46 | 4:38.08 | 33121 | 53978
3 | 11:59.54 | 2:13.65 | 53979 | 64018
4 | 14:13.44 | 4:05.28 | 64019 | 82421
5 | 18:18.72 | 3:33.18 | 82422 | 98414
6 | 21:52.15 | 4:57.00 | 98415 | 120689
7 | 26:49.15 | 4:16.56 | 120690 | 139945
8 | 31:05.71 | 7:08.37 | 139946 | 172082
9 | 38:14.33 | 6:22.28 | 172083 | 200760
10 | 44:36.61 | 5:39.18 | 200761 | 226203
11 | 50:16.04 | 6:18.56 | 226204 | 254609
12 | 56:34.60 | 1:53.00 | 254610 | 263084
Range status and errors
Selected range
Filename G:\D\Загрузка\The Progressive Rock Box Set 6CDs\CD3\Various Artists - The Progressive Rock Box Set - CD3.wav
Peak level 100.0 %
Extraction speed 2.5 X
Range quality 100.0 %
Test CRC 3E3C885D
Copy CRC 3E3C885D
Copy OK
No errors occurred
AccurateRip summary
Track 1 accurately ripped (confidence 2) [F1A16CC0] (AR v2)
Track 2 accurately ripped (confidence 2) [65A6A2F4] (AR v2)
Track 3 accurately ripped (confidence 2) [968A8FF8] (AR v2)
Track 4 accurately ripped (confidence 2) [39D2CAEE] (AR v2)
Track 5 accurately ripped (confidence 2) [2E71CAFF] (AR v2)
Track 6 accurately ripped (confidence 2) [1ADFD199] (AR v2)
Track 7 accurately ripped (confidence 2) [683D4F6D] (AR v2)
Track 8 accurately ripped (confidence 2) [63BD9C5D] (AR v2)
Track 9 accurately ripped (confidence 2) [4836EAF5] (AR v2)
Track 10 accurately ripped (confidence 2) [6E958923] (AR v2)
Track 11 accurately ripped (confidence 2) [22069BFF] (AR v2)
Track 12 accurately ripped (confidence 2) [8BF1FBBE] (AR v2)
All tracks accurately ripped
End of status report

CD 4

Exact Audio Copy V1.0 beta 3 from 29. August 2011
EAC extraction logfile from 26. November 2015, 22:42
Various Artists / The Progressive Rock Box Set - CD 4
Used drive : MATSHITADVD-RAM UJ890AS Adapter: 0 ID: 1
Read mode : Secure
Utilize accurate stream : Yes
Defeat audio cache : Yes
Make use of C2 pointers : No
Read offset correction : 102
Overread into Lead-In and Lead-Out : No
Fill up missing offset samples with silence : Yes
Delete leading and trailing silent blocks : No
Null samples used in CRC calculations : Yes
Used interface : Native Win32 interface for Win NT & 2000
Used output format : Internal WAV Routines
Sample format : 44.100 Hz; 16 Bit; Stereo
TOC of the extracted CD
Track | Start | Length | Start sector | End sector
---------------------------------------------------------
1 | 0:00.00 | 7:48.00 | 0 | 35099
2 | 7:48.00 | 6:05.65 | 35100 | 62539
3 | 13:53.65 | 6:48.65 | 62540 | 93204
4 | 20:42.55 | 8:08.37 | 93205 | 129841
5 | 28:51.17 | 6:37.56 | 129842 | 159672
6 | 35:28.73 | 5:36.54 | 159673 | 184926
7 | 41:05.52 | 3:12.18 | 184927 | 199344
8 | 44:17.70 | 2:58.37 | 199345 | 212731
9 | 47:16.32 | 4:11.09 | 212732 | 231565
10 | 51:27.41 | 4:03.18 | 231566 | 249808
11 | 55:30.59 | 5:52.56 | 249809 | 276264
12 | 61:23.40 | 6:42.09 | 276265 | 306423
Range status and errors
Selected range
Filename G:\D\Загрузка\The Progressive Rock Box Set 6CDs\CD4\Various Artists - The Progressive Rock Box Set - CD 4.wav
Peak level 100.0 %
Extraction speed 2.7 X
Range quality 100.0 %
Test CRC 5970192A
Copy CRC 5970192A
Copy OK
No errors occurred
AccurateRip summary
Track 1 accurately ripped (confidence 2) [5196F4AC] (AR v2)
Track 2 accurately ripped (confidence 2) [44F7FA68] (AR v2)
Track 3 accurately ripped (confidence 2) [8516FA05] (AR v2)
Track 4 accurately ripped (confidence 2) [A57518E5] (AR v2)
Track 5 accurately ripped (confidence 2) [F5F95D9E] (AR v2)
Track 6 accurately ripped (confidence 2) [F91CF141] (AR v2)
Track 7 accurately ripped (confidence 2) [C8A60C5C] (AR v2)
Track 8 accurately ripped (confidence 2) [63C12684] (AR v2)
Track 9 accurately ripped (confidence 2) [DACE049E] (AR v2)
Track 10 accurately ripped (confidence 2) [A002C80D] (AR v2)
Track 11 accurately ripped (confidence 2) [B68A6380] (AR v2)
Track 12 accurately ripped (confidence 2) [0FF72CF3] (AR v2)
All tracks accurately ripped
End of status report

CD 5

Exact Audio Copy V1.0 beta 3 from 29. August 2011
EAC extraction logfile from 26. November 2015, 23:39
Various Artists / The Progressive Rock Box Set - CD5
Used drive : MATSHITADVD-RAM UJ890AS Adapter: 0 ID: 1
Read mode : Secure
Utilize accurate stream : Yes
Defeat audio cache : Yes
Make use of C2 pointers : No
Read offset correction : 102
Overread into Lead-In and Lead-Out : No
Fill up missing offset samples with silence : Yes
Delete leading and trailing silent blocks : No
Null samples used in CRC calculations : Yes
Used interface : Native Win32 interface for Win NT & 2000
Used output format : Internal WAV Routines
Sample format : 44.100 Hz; 16 Bit; Stereo
TOC of the extracted CD
Track | Start | Length | Start sector | End sector
---------------------------------------------------------
1 | 0:00.00 | 6:19.28 | 0 | 28452
2 | 6:19.28 | 10:07.56 | 28453 | 74033
3 | 16:27.09 | 3:28.28 | 74034 | 89661
4 | 19:55.37 | 7:47.37 | 89662 | 124723
5 | 27:42.74 | 9:21.46 | 124724 | 166844
6 | 37:04.45 | 3:18.18 | 166845 | 181712
7 | 40:22.63 | 5:49.65 | 181713 | 207952
8 | 46:12.53 | 5:25.28 | 207953 | 232355
9 | 51:38.06 | 5:18.28 | 232356 | 256233
10 | 56:56.34 | 6:02.36 | 256234 | 283419
11 | 62:58.70 | 6:24.30 | 283420 | 312249
12 | 69:23.25 | 6:41.30 | 312250 | 342354
Range status and errors
Selected range
Filename G:\D\Загрузка\The Progressive Rock Box Set 6CDs\CD5\Various Artists - The Progressive Rock Box Set - CD5.wav
Peak level 100.0 %
Extraction speed 2.8 X
Range quality 100.0 %
Test CRC 2F9BE414
Copy CRC 2F9BE414
Copy OK
No errors occurred
AccurateRip summary
Track 1 accurately ripped (confidence 2) [E74D23BB] (AR v2)
Track 2 accurately ripped (confidence 2) [8CED54B7] (AR v2)
Track 3 accurately ripped (confidence 2) [774BDA97] (AR v2)
Track 4 accurately ripped (confidence 2) [BD54922E] (AR v2)
Track 5 accurately ripped (confidence 2) [0C9A3C3D] (AR v2)
Track 6 accurately ripped (confidence 2) [931E869D] (AR v2)
Track 7 accurately ripped (confidence 2) [F50A7E44] (AR v2)
Track 8 accurately ripped (confidence 2) [18A60AE2] (AR v2)
Track 9 accurately ripped (confidence 2) [01FEEB85] (AR v2)
Track 10 accurately ripped (confidence 2) [9D44E890] (AR v2)
Track 11 accurately ripped (confidence 2) [5DF36F7D] (AR v2)
Track 12 accurately ripped (confidence 2) [31612C59] (AR v2)
All tracks accurately ripped
End of status report

CD 6

Exact Audio Copy V1.0 beta 3 from 29. August 2011
EAC extraction logfile from 28. November 2015, 13:42
Various Artists / The Progressive Rock Box Set - CD6
Used drive : MATSHITADVD-RAM UJ890AS Adapter: 0 ID: 1
Read mode : Secure
Utilize accurate stream : Yes
Defeat audio cache : Yes
Make use of C2 pointers : No
Read offset correction : 102
Overread into Lead-In and Lead-Out : No
Fill up missing offset samples with silence : Yes
Delete leading and trailing silent blocks : No
Null samples used in CRC calculations : Yes
Used interface : Native Win32 interface for Win NT & 2000
Used output format : Internal WAV Routines
Sample format : 44.100 Hz; 16 Bit; Stereo
TOC of the extracted CD
Track | Start | Length | Start sector | End sector
---------------------------------------------------------
1 | 0:00.00 | 3:17.46 | 0 | 14820
2 | 3:17.46 | 5:20.54 | 14821 | 38874
3 | 8:38.25 | 8:57.46 | 38875 | 79195
4 | 17:35.71 | 4:40.09 | 79196 | 100204
5 | 22:16.05 | 7:45.18 | 100205 | 135097
6 | 30:01.23 | 6:22.09 | 135098 | 163756
7 | 36:23.32 | 7:24.56 | 163757 | 197112
8 | 43:48.13 | 13:08.18 | 197113 | 256230
9 | 56:56.31 | 3:47.46 | 256231 | 273301
10 | 60:44.02 | 4:08.00 | 273302 | 291901
11 | 64:52.02 | 6:56.46 | 291902 | 323147
12 | 71:48.48 | 6:02.57 | 323148 | 350354
Range status and errors
Selected range
Filename G:\D\Загрузка\The Progressive Rock Box Set 6CDs\CD6\Various Artists - The Progressive Rock Box Set - CD6.wav
Peak level 100.0 %
Extraction speed 2.7 X
Range quality 100.0 %
Test CRC 1DCD3F99
Copy CRC 1DCD3F99
Copy OK
No errors occurred
AccurateRip summary
Track 1 accurately ripped (confidence 2) [71E79160] (AR v2)
Track 2 accurately ripped (confidence 2) [1D0ED9D4] (AR v2)
Track 3 accurately ripped (confidence 2) [33978EEA] (AR v2)
Track 4 accurately ripped (confidence 2) [CDBF789F] (AR v2)
Track 5 accurately ripped (confidence 2) [4DF33EAC] (AR v2)
Track 6 accurately ripped (confidence 2) [DCD0D319] (AR v2)
Track 7 accurately ripped (confidence 2) [9B13297E] (AR v2)
Track 8 accurately ripped (confidence 2) [78243031] (AR v2)
Track 9 accurately ripped (confidence 2) [91DCBAAD] (AR v2)
Track 10 accurately ripped (confidence 2) [36E568D3] (AR v2)
Track 11 accurately ripped (confidence 2) [ACAC0C10] (AR v2)
Track 12 accurately ripped (confidence 2) [D7F56307] (AR v2)
All tracks accurately ripped
End of status report
Other forum [Profile] [PM]
Similar theme
Forum Topic Author Torrent Replies Last Post
./templates/default/images/folder_dl.gif Metal (Progressive/Groove/Death Metal) Gojira (ex-Godzilla) - Дискография / 14 релизов - 1996-2012, MP3, 320 kbps и ниже Omen
1 | 0

1 | 862

0

2013-06-16 19:06
Dracula Latest
./templates/default/images/folder_dl.gif Metal (Progressive Metal) Leprous - The Congregation - 2015, MP3, 320 kbps Omen
1 | 0

0 | 2621

20

2015-05-21 00:05
Omen Latest
./templates/default/images/folder_dl.gif Rock (Progressive Rock) [WEB] Armonite - The Sun is New each Day - 2015, FLAC (tracks), lossless Omen
0 | 1

0 | 1164

7

2015-07-07 00:03
Omen Latest
./templates/default/images/folder_dl.gif Rock (Progressive Hard Rock / Melodic Metal) Starquake - Times That Matter - 2015, MP3, 320 kbps Omen
1 | 0

0 | 1193

10

2015-07-10 18:21
Omen Latest
./templates/default/images/folder_dl.gif Rock (Progressive Rock) Spock\'s Beard - The Oblivion Particle - 2015, MP3, 320 kbps Omen
1 | 0

0 | 1544

11

2015-08-21 00:00
Omen Latest
./templates/default/images/folder_dl.gif Metal (Progressive Metal, Thrash Metal) Anacrusis - Дискография - (8 альбомов, 9 CD) - 1988-2012, FLAC (image + .cue), lossless Omen
1 | 0

0 | 1684

12

2015-09-04 06:00
Omen Latest
./templates/default/images/folder_dl.gif Rock (Progressive Rock/Blues Rock) David Gilmour - Дискография 1978-2015 (22 релиза), MP3, 320 kbps Omen
1 | 0

0 | 1998

13

2015-09-17 15:43
Omen Latest
./templates/default/images/folder_dl.gif House, Techno, Hardcore, Hardstyle, Jumpstyle (Progressive House) Kaskade - Automatic - 2015, MP3, 320 kbps Omen
0 | 1

0 | 1006

9

2015-09-24 21:01
Omen Latest
./templates/default/images/folder_dl.gif Rock (Progressive Rock, Canterbury,) [CD] Soft Machine - Third [2CD] - 2013, FLAC (tracks+.cue), lossless Omen
0 | 2

0 | 1290

0

2015-10-06 18:18
Omen Latest
./templates/default/images/folder_dl.gif Rock (Progressive Rock, Melodic Rock) Echoes - Barefoot To The Moon (An Acoustic Tribute To Pink Floyd) - 2015, MP3, 320 kbps Omen
2 | 0

0 | 1516

9

2015-10-24 00:00
Omen Latest
Display posts from previous:    
Reply to topic

The time now is: Today 19:20

All times are GMT + 3 Hours



You cannot post new topics in this forum
You cannot reply to topics in this forum
You cannot edit your posts in this forum
You cannot delete your posts in this forum
You cannot vote in polls in this forum
You cannot attach files in this forum
You cannot download files in this forum