Today is a free download without charge Download

Специалист | Microsoft Word 2016/2013. Уровень 1. Работа с Word 2016/2013 (2014, 2017) PCRec

Reply to topic
 
Author
Message

Omen ®

Longevity: 7 years 9 months

Posts: 181087

Торрент-статистика

Post 08-Dec-2015 00:04

[Quote]

Microsoft Word 2016/2013. Уровень 1. Работа с Word 2016/2013 - Автор (режиссер): Пронкин Павел Геннадьевич
Оф. сайт: specialist.ru
Жанр: MS Office
Описание:
Microsoft Office Word на протяжении многих лет является самым популярным приложением для создания текстовых документов. Специалисты всех отраслей по всему миру используют Word для работы, творчества и учебы.
Поскольку практически любая современная профессия предполагает работу с документами различной сложности, этот курс будет полезен каждому слушателю.
Продолжительность: 11:26:06
Качество видео: PCRec
Видео: WMV3, 960-1440x720-900, 193-977 kbps
Аудио: WMA, 1 ch, 48 kbps

Mediainfo:

Код:
word1_(Специалист_Пронкин)\2014 - Word2013\01.WORD1.2014-04-25.wmv
Format                                   : Windows Media
File size                                : 195 MiB
Duration                                 : 2h 43mn
Overall bit rate mode                    : Variable
Overall bit rate                         : 167 Kbps
Maximum Overall bit rate                 : 4 926 Kbps
Encoded date                             : UTC 2017-11-27 18:18:38.207
Writing application                      :  6.0 Build 1259 / GoToMeeting
BitRateFrom the writer                   : 159829
Audio samples                            : 126312
Video samples                            : 57540
recording time                           : Пн, 27 ноя 2017 22:25:24 RTZ 2 (зима)
Video
ID                                       : 2
Format                                   : VC-1
Format profile                           : [email protected]
Codec ID                                 : WMV3
Codec ID/Info                            : Windows Media Video 9
Codec ID/Hint                            : WMV3
Description of the codec                 : Windows Media Video 9
Bit rate mode                            : Variable
Bit rate                                 : 571 Kbps
Width                                    : 1 280 pixels
Height                                   : 768 pixels
Display aspect ratio                     : 1.667
Frame rate mode                          : Variable
Nominal frame rate                       : 29.970 fps
Color space                              : YUV
Chroma subsampling                       : 4:2:0
Bit depth                                : 8 bits
Scan type                                : Progressive
Compression mode                         : Lossy
Audio
ID                                       : 1
Format                                   : WMA
Format version                           : Version 2
Codec ID                                 : 161
Codec ID/Info                            : Windows Media Audio
Description of the codec                 : Windows Media Audio 9.2 -  48 kbps, 44 kHz, mono 1-pass CBR
Duration                                 : 2h 43mn
Bit rate mode                            : Constant
Bit rate                                 : 48.0 Kbps
Channel count                            : 1 channel
Sampling rate                            : 44.1 KHz
Bit depth                                : 16 bits
Stream size                              : 56.1 MiB (29%)
word1_(Специалист_Пронкин)\2014 - Word2013\02.WORD1.2014-04-28.wmv
Format                                   : Windows Media
File size                                : 273 MiB
Duration                                 : 2h 51mn
Overall bit rate mode                    : Variable
Overall bit rate                         : 223 Kbps
Maximum Overall bit rate                 : 6 111 Kbps
Encoded date                             : UTC 2017-11-27 19:25:25.295
Writing application                      :  6.0 Build 1259 / GoToMeeting
BitRateFrom the writer                   : 215978
Audio samples                            : 131738
Video samples                            : 65311
recording time                           : Вт, 28 ноя 2017 00:06:14 RTZ 2 (зима)
Video
ID                                       : 2
Format                                   : VC-1
Format profile                           : [email protected]
Codec ID                                 : WMV3
Codec ID/Info                            : Windows Media Video 9
Codec ID/Hint                            : WMV3
Description of the codec                 : Windows Media Video 9
Duration                                 : 2h 51mn
Bit rate mode                            : Variable
Bit rate                                 : 794 Kbps
Width                                    : 1 440 pixels
Height                                   : 900 pixels
Display aspect ratio                     : 16:10
Frame rate                               : 29.970 fps
Color space                              : YUV
Chroma subsampling                       : 4:2:0
Bit depth                                : 8 bits
Scan type                                : Progressive
Compression mode                         : Lossy
Bits/(Pixel*Frame)                       : 0.020
Stream size                              : 973 MiB
Audio
ID                                       : 1
Format                                   : WMA
Format version                           : Version 2
Codec ID                                 : 161
Codec ID/Info                            : Windows Media Audio
Description of the codec                 : Windows Media Audio 9.2 -  48 kbps, 44 kHz, mono 1-pass CBR
Duration                                 : 2h 51mn
Bit rate mode                            : Constant
Bit rate                                 : 48.0 Kbps
Channel count                            : 1 channel
Sampling rate                            : 44.1 KHz
Bit depth                                : 16 bits
Stream size                              : 58.9 MiB (22%)
word1_(Специалист_Пронкин)\2017 - Word2016\WORD1.2017-01-05.wmv
Format                                   : Windows Media
File size                                : 485 MiB
Duration                                 : 5h 51mn
Overall bit rate mode                    : Variable
Overall bit rate                         : 193 Kbps
Maximum Overall bit rate                 : 1 796 Kbps
Encoded date                             : UTC 2017-12-26 03:54:30.698
Writing application                      :  6.0 Build 1259 / GoToMeeting
BitRateFrom the writer                   : 182284
Audio samples                            : 288016
Video samples                            : 610423
recording time                           : Вт, 26 дек 2017 15:50:02 RTZ 2 (зима)
Video
ID                                       : 2
Format                                   : VC-1
Format profile                           : [email protected]
Codec ID                                 : WMV3
Codec ID/Info                            : Windows Media Video 9
Codec ID/Hint                            : WMV3
Description of the codec                 : Windows Media Video 9
Duration                                 : 5h 51mn
Bit rate mode                            : Variable
Bit rate                                 : 139 Kbps
Width                                    : 960 pixels
Height                                   : 720 pixels
Display aspect ratio                     : 4:3
Frame rate                               : 29.970 fps
Color space                              : YUV
Chroma subsampling                       : 4:2:0
Bit depth                                : 8 bits
Scan type                                : Progressive
Compression mode                         : Lossy
Bits/(Pixel*Frame)                       : 0.007
Stream size                              : 349 MiB (72%)
Audio
ID                                       : 1
Format                                   : WMA
Format version                           : Version 2
Codec ID                                 : 161
Codec ID/Info                            : Windows Media Audio
Description of the codec                 : Windows Media Audio 9.2 -  48 kbps, 44 kHz, mono 1-pass CBR
Duration                                 : 5h 51mn
Bit rate mode                            : Constant
Bit rate                                 : 48.0 Kbps
Channel count                            : 1 channel
Sampling rate                            : 44.1 KHz
Bit depth                                : 16 bits
Stream size                              : 121 MiB (25%)

По окончании курса Вы будете уметь:

• Создавать в программе Microsoft Office Word 2016/2013 и оформлять по всем правилам текстовые документы, содержащие таблицы, рисунки и другие графические объекты

Программа курса:

Модуль 1. Microsoft Word 2016/2013. Создание текстового документа
Интерфейс Microsoft Office Word 2016/2013.
- Лента, вкладки (вкладка Дизайн в Word 2016/2013), группы, инструменты
- Панель Быстрого доступа
- Настройка строки состояния
Создание, открытие, сохранение документов. Возможность работы с .pdf-файлами в Word 2016/2013.
Режимы просмотра документа. Новый, улучшенный режим чтения (Word 2016/2013)
Настройка параметров страницы:
- Установка полей
- Изменение ориентации страницы
Ввод и редактирование текста:
- Правила написания знаков препинания
- Проверка правописания и исправление ошибок
- Расстановка переносов
- Перемещение и копирование текста
- Поиск и замена слов
- Подбор синонимов
- Вставка специальных символов
Модуль 2. Оформление документов
Способы выделения фрагментов текста
Форматирование шрифтов:
- Выбор и установка оптимальных шрифтов документа
- Видоизменение шрифтов: начертание, подчеркивание, цвет, масштаб, интервал, регистр
- Использование для форматирования Мини-панели
Работа с абзацами:
- Виды выравнивания
- Настройка отступов и интервалов в абзацах
- Границы (обрамление) абзацев
- Заливка фрагментов текста
Копирование форматов. Очистка форматирования
Списки
- Нумерованные
- Маркированные
Оформление страниц:
- Границы,
- Заливка (фон)
- Подложка (водяные знаки)
Модуль 3. Работа с таблицами
Создание и редактирование таблиц:
- Вставка таблицы
- Добавление и удаление элементов таблицы
- Изменение ширины столбцов и высоты строк
- Объединение и разделение ячеек
- Выравнивание данных в ячейках
Оформление таблиц:
- Стили таблиц
- Границы и заливка ячеек
Копирование и удаление таблицы
Модуль 4. Оформление документа графическими объектами
Вставка изображений из различных источников: рисунки, клипы с Office.com, поиск в интернете
Использование для оформления документов объектов WordArt
Форматирование графических объектов:
- Настройка обтекания рисунков
- Размещение на странице (новые возможности выравнивания, динамический макет документа в Word 2016/2013)
- Изменение размера и поворот рисунков
- Использование стилей и эффектов оформления
Скриншоты:
       
Other forum [Profile] [PM]
Similar theme
Forum Topic Author Torrent Replies Last Post
./templates/default/images/folder_dl.gif Программы [AudioBook] Аудиокнига "Специалист по выживанию. Сборник рассказов" (Фантастика, Дим Димыч, 2010 г.) Omen
1 | 0

0 | 737

1

2012-12-17 19:30
Omen Latest
./templates/default/images/folder_dl.gif Обучающее видео Специалист | Основы дизайна [converted] [2011] PCRec Omen
1 | 0

0 | 2157

23

2013-07-22 14:47
Omen Latest
./templates/default/images/folder_dl.gif Обучающее видео Специалист | Бухгалтерский учёт - Теория и практика (2013) [PCRec] Omen
1 | 0

0 | 830

23

2014-07-12 12:42
Omen Latest
./templates/default/images/folder_dl.gif Обучающее видео Специалист | Налогообложение 2013. Ведение налогового учета, проблемы и решения (2013) [PCRec] Omen
1 | 0

0 | 578

7

2014-07-12 12:51
Omen Latest
./templates/default/images/folder_dl.gif Обучающее видео Специалист | Делопроизводство (документационное обеспечение управления) (2010) [PCRec] Omen
1 | 0

0 | 1455

22

2014-07-13 20:45
Omen Latest
./templates/default/images/folder_dl.gif Обучающее видео Специалист | Русский без ошибок (2014) PCRec Omen
1 | 0

0 | 699

33

2014-10-14 21:21
Omen Latest
./templates/default/images/folder_dl.gif Обучающее видео Специалист | Оперативная память персонального компьютера (2014) PCRec Omen
1 | 0

0 | 445

11

2015-03-08 21:35
Omen Latest
./templates/default/images/folder_dl.gif Техническая и научно-популярная литература Резник Н.И. (ред.) - Методика и организация деятельности командиров воинских частей, войсковых психологов, специалистов Ц(П)ППир, командиров подразделений по изучению психологических особенностей пополнения [2007, DOC, RUS] Omen
1 | 0

0 | 572

3

2015-08-20 18:34
Omen Latest
./templates/default/images/folder_dl.gif Обучающее видео Специалист | Основы Linux (2016) PCRec Omen
1 | 0

0 | 2140

91

2016-03-09 18:37
Omen Latest
./templates/default/images/folder_dl.gif Обучающее видео [Специалист] Курс 50578A: Язык запросов MDX для аналитических служб SQL Server (OLAP) [2016, RUS] Omen
1 | 0

0 | 1020

25

2016-04-15 18:03
Omen Latest
Display posts from previous:    
Reply to topic

The time now is: Today 15:52

All times are GMT + 3 Hours



You cannot post new topics in this forum
You cannot reply to topics in this forum
You cannot edit your posts in this forum
You cannot delete your posts in this forum
You cannot vote in polls in this forum
You cannot attach files in this forum
You cannot download files in this forum