Сегодня идет свободное скачивание без начисления Download

Шоугелз / Showgirls (Пол Верховен)(1995)(драма) BDRip 720p

Ответить на тему
 
Автор
Сообщение

Delia ®

Пол:

Стаж: 6 лет 7 месяцев

Сообщений: 1930

Торрент-статистика

Пост 20-Фев-2011 10:50

[Цитировать]

Шоугелз Showgirls Год выпуска: 1995
Страна: США, Франция
Жанр: драма
Продолжительность: 2 ч. 11 м.
Перевод: Профессиональный (многоголосый, закадровый)
Режиссер: Пол Верховен
Продюссер: Линн Эренспергер, Чарльз Эванс, Марио Кассар
Сценарий: Джо Эстерхаз
Бюджет: $45 000 000
Премьера в мире: 22 сентября 1995

В ролях: Элизабет Беркли, Кайл МакЛоклен, Джина Гершон, Гленн Пламмер, Роберт Дави, Алан Рачинс, Джина Равера, Лин Туччи, Грег Трэвис, Аль Руссо
Описание: Молодая длинноногая танцовщица Номи отчаянно пытается добиться успеха в Лас-Вегасе и проникнуть в блистающий мир ярких огней, блеска и света шоу — сцены. Чтобы удержаться «на плаву», она соглашается на единственно возможную работу — стриптиз, пока ей не удается вытянуть свой счастливый билет — познакомиться с королевой сцены Лас-Вегаса Кристал.Используя свое влияние, Кристал устраивает Номи в свое шоу и вводит ее в истинный мир шоу-бизнеса Лас-Вегаса — мир случая, предательства и интриг, в котором сексуальность можно использовать как власть.
Качество: BDRip (Blu-Ray Remux (1080p))
Формат: MKV
Видео кодек: H.26x
Аудио кодек: AC3
Видео: 1280*528 (2,40:1), в 23,976 кадр/сек,AVC MPEG4 (x264) ([email protected])~2499 Кбит/сек, 0.154bit/pixel
Аудио#: Russian, 48,0 КГц, A_AC3, 6 канала(ов)Front: L C R, Side: L R, LFE, AC-3, 448 Кбит/сек
Аудио#:English, 48,0 КГц, A_AC3, 6 канала(ов)Front: L C R, Side: L R, LFE, AC-3, 448 Кбит/сек
Субтитры:Russian, VobSub:English, VobSub

Media Info:

Полное имя : E:торрентShowgirls(1995)BDRip 720p.mkv
Формат : Matroska
Размер файла : 3,12 Гбайт
Продолжительность : 2 ч. 11 м.
Общий поток : 3400 Кбит/сек
Дата кодирования : UTC 2011-02-20 06:28:40
Программа кодирования : mkvmerge v4.5.0 ('Speed of Light') built on Feb 1 2011 02:10:32
Библиотека кодирования : libebml v1.2.0 + libmatroska v1.1.0
Видео
Идентификатор : 1
Формат : AVC
Формат/Информация : Advanced Video Codec
Профиль формата : [email protected]
Параметр CABAC формата : Да
Параметр ReFrames формата : 10 кадры
Параметры GOP формата : M=5, N=32
Идентификатор кодека : V_MPEG4/ISO/AVC
Продолжительность : 2 ч. 11 м.
Битрейт : 2499 Кбит/сек
Ширина : 1280 пикс.
Высота : 528 пикс.
Соотношение сторон : 2,40:1
Частота кадров : 23,976 кадр/сек
Цветовое пространство : YUV
Подвыборка цветности : 4:2:0
Битовая глубина : 8 бит
Тип развёртки : Прогрессивная
Бит/(Пиксели*Кадры) : 0.154
Размер потока : 2,24 Гбайт (72%)
Библиотека кодирования : x264 core 114 r1900 60ef1f8
Настройки программы : cabac=1 / ref=10 / deblock=1:-3:-3 / analyse=0x3:0x133 / me=umh / subme=7 / psy=1 / psy_rd=1.00:0.00 / mixed_ref=1 / me_range=32 / chroma_me=1 / trellis=2 / 8x8dct=1 / cqm=0 / deadzone=21,11 / fast_pskip=1 / chroma_qp_offset=-2 / threads=6 / sliced_threads=0 / nr=0 / decimate=1 / interlaced=0 / constrained_intra=0 / bframes=4 / b_pyramid=2 / b_adapt=1 / b_bias=0 / direct=1 / weightb=1 / open_gop=0 / weightp=2 / keyint=250 / keyint_min=23 / scenecut=40 / intra_refresh=0 / rc_lookahead=40 / rc=2pass / mbtree=1 / bitrate=2499 / ratetol=1.0 / qcomp=0.80 / qpmin=5 / qpmax=51 / qpstep=4 / cplxblur=20.0 / qblur=0.5 / ip_ratio=1.40 / aq=1:1.00
Язык : English
Аудио #1
Идентификатор : 2
Формат : AC-3
Формат/Информация : Audio Coding 3
Расширение режима : CM (complete main)
Идентификатор кодека : A_AC3
Продолжительность : 2 ч. 11 м.
Вид битрейта : Постоянный
Битрейт : 448 Кбит/сек
Канал(ы) : 6 канала(ов)
Расположение каналов : Front: L C R, Side: L R, LFE
Частота : 48,0 КГц
Битовая глубина : 16 бит
Метод сжатия : С потерями
Размер потока : 421 Мбайт (13%)
Язык : Russian
Аудио #2
Идентификатор : 3
Формат : AC-3
Формат/Информация : Audio Coding 3
Расширение режима : CM (complete main)
Идентификатор кодека : A_AC3
Продолжительность : 2 ч. 11 м.
Вид битрейта : Постоянный
Битрейт : 448 Кбит/сек
Канал(ы) : 6 канала(ов)
Расположение каналов : Front: L C R, Side: L R, LFE
Частота : 48,0 КГц
Битовая глубина : 16 бит
Метод сжатия : С потерями
Размер потока : 421 Мбайт (13%)
Язык : English
Текст #1
Идентификатор : 4
Формат : VobSub
Режим смешивания : zlib
Идентификатор кодека : S_VOBSUB
Идентификатор кодека/Информация : The same subtitle format used on DVDs
Язык : Russian
Текст #2
Идентификатор : 5
Формат : VobSub
Режим смешивания : zlib
Идентификатор кодека : S_VOBSUB
Идентификатор кодека/Информация : The same subtitle format used on DVDs
Язык : English
Меню
00:00:00.000 : en:00:00:00.000
00:03:20.450 : en:00:03:20.450
00:08:11.741 : en:00:08:11.741
00:12:20.656 : en:00:12:20.656
00:16:04.546 : en:00:16:04.546
00:19:43.182 : en:00:19:43.182
00:22:43.487 : en:00:22:43.487
00:26:14.906 : en:00:26:14.906
00:34:09.839 : en:00:34:09.839
00:36:09.584 : en:00:36:09.584
00:38:00.444 : en:00:38:00.444
00:43:55.841 : en:00:43:55.841
00:49:31.510 : en:00:49:31.510
00:53:04.264 : en:00:53:04.264
00:56:31.971 : en:00:56:31.971
00:58:26.002 : en:00:58:26.002
01:02:43.593 : en:01:02:43.593
01:04:48.968 : en:01:04:48.968
01:11:37.835 : en:01:11:37.835
01:18:16.191 : en:01:18:16.191
01:23:07.607 : en:01:23:07.607
01:29:28.279 : en:01:29:28.279
01:31:26.564 : en:01:31:26.564
01:37:24.296 : en:01:37:24.296
01:38:49.006 : en:01:38:49.006
01:42:37.734 : en:01:42:37.734
01:45:35.120 : en:01:45:35.120
01:46:59.788 : en:01:46:59.788
01:52:38.376 : en:01:52:38.376
01:55:46.814 : en:01:55:46.814
01:58:49.455 : en:01:58:49.455
02:03:39.412 : en:02:03:39.412

Скриншоты

        
Pелиз от: -

_________________
Человек – это канат, натянутый между животным и сверхчеловеком, – канат над пропастью.
В человеке ценно то, что он мост, а не цель. Фридрих Ницше


Последний раз редактировалось: Delia (2011-08-25 22:00), всего редактировалось 2 раз(а)
Вне форума [Профиль] [ЛС]
Показать сообщения:    
Ответить на тему

Текущее время: Сегодня 14:50

Часовой пояс: GMT + 3



Вы не можете начинать темы
Вы не можете отвечать на сообщения
Вы не можете редактировать свои сообщения
Вы не можете удалять свои сообщения
Вы не можете голосовать в опросах
Вы не можете прикреплять файлы к сообщениям
Вы не можете скачивать файлы