Today is a free download without charge Download

(Progressive Rock) [CD] Peter Gabriel - Peter Gabriel (3 Or Melt) (Original & Remastered Albums) - 1987/2011, FLAC (image+.cue), lossless

Reply to topic
 
Author
Message

Omen ®

Longevity: 6 years 11 months

Posts: 181090

Торрент-статистика

Post 20-Dec-2015 12:02

[Quote]

Peter Gabriel - Peter Gabriel (3 Or Melt) (Original & Remastered Albums)- -Жанр: Progressive Rock | Страна исполнителя: UK | Аудио кодек: FLAC | Битрейт аудио: lossless | Источник: dafnaplus | Наличие сканов: да-

1980 - Peter Gabriel (1987 USA Original, Geffen 2035-2)


Тип рипа: tracks+.cue
Продолжительность: 45:29
Трэклист:
01. Intruder 4:54
02. No Self Control 3:56
03. Start 1:21
04. I Don't Remember 4:42
05. Family Snapshot 4:29
06. And Through the Wire 4:58
07. Games Without Frontiers 4:06
08. Not One of Us 5:22
09. Lead a Normal Life 4:15
10. Biko 7:26

Лог EAC

Exact Audio Copy V1.0 beta 3 from 29. August 2011
EAC extraction logfile from 28. November 2011, 15:52
Peter Gabriel / Peter Gabriel 3 (2035-2)
Used drive : PIONEER DVD-RW DVR-219L Adapter: 2 ID: 0
Read mode : SecureUtilize accurate stream : YesDefeat audio cache : YesMake use of C2 pointers : No
Read offset correction : 6Overread into Lead-In and Lead-Out : NoFill up missing offset samples with silence : YesDelete leading and trailing silent blocks : NoNull samples used in CRC calculations : YesUsed interface : Native Win32 interface for Win NT & 2000Gap handling : Appended to previous track
Used output format : User Defined EncoderSelected bitrate : 1024 kBit/sQuality : HighAdd ID3 tag : YesCommand line compressor : C:\Program Files\Exact Audio Copy\Flac\flac.exeAdditional command line options : -V -8 -T "Genre=%genre%" -T "Artist=%artist%" -T "Title=%title%" -T "Album=%albumtitle%" -T "Date=%year%" -T "Tracknumber=%tracknr%" -T "Comment=%comment%" %source%
TOC of the extracted CD
Track | Start | Length | Start sector | End sector --------------------------------------------------------- 1 | 0:00.00 | 4:53.55 | 0 | 22029 2 | 4:53.55 | 3:55.60 | 22030 | 39714 3 | 8:49.40 | 1:20.60 | 39715 | 45774 4 | 10:10.25 | 4:42.07 | 45775 | 66931 5 | 14:52.32 | 4:28.63 | 66932 | 87094 6 | 19:21.20 | 4:58.27 | 87095 | 109471 7 | 24:19.47 | 4:06.30 | 109472 | 127951 8 | 28:26.02 | 5:21.68 | 127952 | 152094 9 | 33:47.70 | 4:14.62 | 152095 | 171206 10 | 38:02.57 | 7:26.20 | 171207 | 204676
Track 1
Filename H:\Peter Gabriel - Peter Gabriel\Cd\01 Intruder.wav
Pre-gap length 0:00:02.00
Peak level 79.1 % Extraction speed 1.1 X Track quality 100.0 % Test CRC E7C1F8D5 Copy CRC E7C1F8D5 Accurately ripped (confidence 25) [115DBDE5] (AR v1) Copy OK
Track 2
Filename H:\Peter Gabriel - Peter Gabriel\Cd\02 No Self Control.wav
Pre-gap length 0:00:01.68
Peak level 76.1 % Extraction speed 1.2 X Track quality 100.0 % Test CRC 3E526896 Copy CRC 3E526896 Accurately ripped (confidence 24) [A31496A8] (AR v1) Copy OK
Track 3
Filename H:\Peter Gabriel - Peter Gabriel\Cd\03 Start.wav
Pre-gap length 0:00:03.70
Peak level 28.3 % Extraction speed 1.0 X Track quality 100.0 % Test CRC 98E27E55 Copy CRC 98E27E55 Accurately ripped (confidence 25) [80AB8121] (AR v1) Copy OK
Track 4
Filename H:\Peter Gabriel - Peter Gabriel\Cd\04 I Don't Remember.wav
Peak level 76.3 % Extraction speed 1.4 X Track quality 100.0 % Test CRC E47FA732 Copy CRC E47FA732 Accurately ripped (confidence 25) [F99A894B] (AR v1) Copy OK
Track 5
Filename H:\Peter Gabriel - Peter Gabriel\Cd\05 Family Snapshot.wav
Pre-gap length 0:00:05.17
Peak level 59.0 % Extraction speed 1.5 X Track quality 100.0 % Test CRC 4A1F8CDD Copy CRC 4A1F8CDD Accurately ripped (confidence 25) [779B5912] (AR v1) Copy OK
Track 6
Filename H:\Peter Gabriel - Peter Gabriel\Cd\06 And Through the Wire.wav
Pre-gap length 0:00:00.08
Peak level 80.9 % Extraction speed 1.6 X Track quality 100.0 % Test CRC 4BE77C4B Copy CRC 4BE77C4B Accurately ripped (confidence 25) [1794C2A8] (AR v1) Copy OK
Track 7
Filename H:\Peter Gabriel - Peter Gabriel\Cd\07 Games Without Frontiers.wav
Pre-gap length 0:00:01.52
Peak level 82.0 % Extraction speed 1.6 X Track quality 100.0 % Test CRC E9ABF633 Copy CRC E9ABF633 Accurately ripped (confidence 25) [3C88C723] (AR v1) Copy OK
Track 8
Filename H:\Peter Gabriel - Peter Gabriel\Cd\08 Not One of Us.wav
Pre-gap length 0:00:04.45
Peak level 86.4 % Extraction speed 1.8 X Track quality 100.0 % Test CRC 386D1DFA Copy CRC 386D1DFA Accurately ripped (confidence 25) [377DCF18] (AR v1) Copy OK
Track 9
Filename H:\Peter Gabriel - Peter Gabriel\Cd\09 Lead a Normal Life.wav
Pre-gap length 0:00:02.25
Peak level 34.7 % Extraction speed 1.8 X Track quality 100.0 % Test CRC D7A1F725 Copy CRC D7A1F725 Accurately ripped (confidence 25) [316BCED6] (AR v1) Copy OK
Track 10
Filename H:\Peter Gabriel - Peter Gabriel\Cd\10 Biko.wav
Pre-gap length 0:00:02.17
Peak level 74.0 % Extraction speed 2.0 X Track quality 100.0 % Test CRC D76AA88F Copy CRC D76AA88F Accurately ripped (confidence 24) [D31C4972] (AR v1) Copy OK
All tracks accurately ripped
No errors occurred
End of status report
==== Log checksum D29981689493CE0A37CDBFB623077BCBC80A0E8376D79E98276281CAD583D0C9 ====

Содержание индексной карты (.CUE)

REM GENRE "Progressive Rock"REM DATE 1987REM DISCID 7D0AA90AREM COMMENT "ExactAudioCopy v1.0b3"PERFORMER "Peter Gabriel"TITLE "Peter Gabriel 3 (2035-2)"FILE "01 Intruder.wav" WAVE TRACK 01 AUDIO TITLE "Intruder" PERFORMER "Peter Gabriel" INDEX 01 00:00:00 TRACK 02 AUDIO TITLE "No Self Control" PERFORMER "Peter Gabriel" INDEX 00 04:51:62FILE "02 No Self Control.wav" WAVE INDEX 01 00:00:00 TRACK 03 AUDIO TITLE "Start" PERFORMER "Peter Gabriel" INDEX 00 03:51:65FILE "03 Start.wav" WAVE INDEX 01 00:00:00FILE "04 I Don't Remember.wav" WAVE TRACK 04 AUDIO TITLE "I Don't Remember" PERFORMER "Peter Gabriel" INDEX 01 00:00:00 TRACK 05 AUDIO TITLE "Family Snapshot" PERFORMER "Peter Gabriel" INDEX 00 04:36:65FILE "05 Family Snapshot.wav" WAVE INDEX 01 00:00:00 TRACK 06 AUDIO TITLE "And Through the Wire" PERFORMER "Peter Gabriel" INDEX 00 04:28:55FILE "06 And Through the Wire.wav" WAVE INDEX 01 00:00:00 TRACK 07 AUDIO TITLE "Games Without Frontiers" PERFORMER "Peter Gabriel" INDEX 00 04:56:50FILE "07 Games Without Frontiers.wav" WAVE INDEX 01 00:00:00 TRACK 08 AUDIO TITLE "Not One of Us" PERFORMER "Peter Gabriel" INDEX 00 04:01:60FILE "08 Not One of Us.wav" WAVE INDEX 01 00:00:00 TRACK 09 AUDIO TITLE "Lead a Normal Life" PERFORMER "Peter Gabriel" INDEX 00 05:19:43FILE "09 Lead a Normal Life.wav" WAVE INDEX 01 00:00:00 TRACK 10 AUDIO TITLE "Biko" PERFORMER "Peter Gabriel" INDEX 00 04:12:45FILE "10 Biko.wav" WAVE INDEX 01 00:00:00

Back, Disc, Matrix

-

1980 - Peter Gabriel (2011 Germany Remaster, Real World PGCDR3R)


Тип рипа: image+.cue
Продолжительность: 45:39
Трэклист:
01. Intruder 4:54
02. No Self-Control 3:56
03. Start 1:21
04. I Don't Remember 4:42
05. Family Snapshot 4:29
06. And Through The Wire 5:01
07. Games Without Frontiers 4:07
08. Not One Of Us 5:22
09. Lead A Normal Life 4:15
10. Biko 7:33

Лог EAC

Exact Audio Copy V1.1 from 23. June 2015
EAC extraction logfile from 19. December 2015, 14:35
Peter Gabriel / Peter Gabriel (PGCDR3R)
Used drive : PLEXTOR DVDR PX-891SA Adapter: 1 ID: 0
Read mode : SecureUtilize accurate stream : YesDefeat audio cache : YesMake use of C2 pointers : No
Read offset correction : 6Overread into Lead-In and Lead-Out : NoFill up missing offset samples with silence : YesDelete leading and trailing silent blocks : NoNull samples used in CRC calculations : YesUsed interface : Native Win32 interface for Win NT & 2000
Used output format : User Defined EncoderSelected bitrate : 128 kBit/sQuality : HighAdd ID3 tag : NoCommand line compressor : C:\Program Files (x86)\Exact Audio Copy\Flac\flac.exeAdditional command line options : -V -8 -T "Genre=%genre%" -T "Artist=%artist%" -T "Title=%title%" -T "Album=%albumtitle%" -T "Date=%year%" -T "Tracknumber=%tracknr%" -T "Comment=%comment%" %source%
TOC of the extracted CD
Track | Start | Length | Start sector | End sector --------------------------------------------------------- 1 | 0:00.00 | 4:54.30 | 0 | 22079 2 | 4:54.30 | 3:55.49 | 22080 | 39753 3 | 8:50.04 | 1:21.06 | 39754 | 45834 4 | 10:11.10 | 4:41.68 | 45835 | 66977 5 | 14:53.03 | 4:28.52 | 66978 | 87129 6 | 19:21.55 | 5:00.47 | 87130 | 109676 7 | 24:22.27 | 4:06.50 | 109677 | 128176 8 | 28:29.02 | 5:22.00 | 128177 | 152326 9 | 33:51.02 | 4:14.70 | 152327 | 171446 10 | 38:05.72 | 7:32.65 | 171447 | 205411
Range status and errors
Selected range
Filename H:\dafnaplus\Peter Gabriel\Peter Gabriel - Peter Gabriel (PGCDR3R).wav
Peak level 99.5 % Extraction speed 7.3 X Range quality 100.0 % Test CRC BC9169E6 Copy CRC BC9169E6 Copy OK
No errors occurred
AccurateRip summary
Track 1 accurately ripped (confidence 78) [6B7ED90E] (AR v2)Track 2 accurately ripped (confidence 79) [30A5EDA1] (AR v2)Track 3 accurately ripped (confidence 79) [C436A71E] (AR v2)Track 4 accurately ripped (confidence 79) [D2555D2D] (AR v2)Track 5 accurately ripped (confidence 79) [93B41F53] (AR v2)Track 6 accurately ripped (confidence 78) [DA2E3083] (AR v2)Track 7 accurately ripped (confidence 79) [737F7062] (AR v2)Track 8 accurately ripped (confidence 79) [EA7A97D8] (AR v2)Track 9 accurately ripped (confidence 79) [2B93B1A5] (AR v2)Track 10 accurately ripped (confidence 79) [35ECC9C0] (AR v2)
All tracks accurately ripped
End of status report
---- CUETools DB Plugin V2.1.6
[CTDB TOCID: VtTgR8n7t.WL3io3AFpvM7qmhgU-] foundSubmit result: already submittedTrack | CTDB Status 1 | (229/259) Accurately ripped 2 | (230/259) Accurately ripped 3 | (230/259) Accurately ripped 4 | (230/259) Accurately ripped 5 | (230/259) Accurately ripped 6 | (229/259) Accurately ripped 7 | (230/259) Accurately ripped 8 | (229/259) Accurately ripped 9 | (230/259) Accurately ripped 10 | (230/259) Accurately ripped
==== Log checksum 082B82D03AF22B7125B3B3AC1F697E076DFFE994E1F2D6A4EF89861772557F62 ====

Back, Disc, Matrix

-
Other forum [Profile] [PM]
Similar theme
Forum Topic Author Torrent Replies Last Post
./templates/default/images/folder_dl.gif Metal (Progressive/Power Metal) [CD] Pagan\'s Mind - Full Circle (Live At Center Stage) 2015 (2CD), FLAC (tracks+.cue), lossless Omen
0 | 1

0 | 1454

3

2015-10-19 00:06
Omen Latest
./templates/default/images/folder_dl.gif Rock (Progressive Rock) Greg Lake & Geoff Downes - Ride The Tiger - 2015, MP3, 320 kbps Omen
1 | 0

0 | 907

20

2015-12-01 00:01
Omen Latest
./templates/default/images/folder_dl.gif Rock (Progressive Rock) [CD] Manfred Mann\'s Earth Band - Return To The Better - 2015, FLAC (tracks+.cue), lossless Omen
1 | 0

0 | 2342

21

2015-12-16 18:32
Omen Latest
./templates/default/images/folder_dl.gif Rock (Progressive Rock, Art Rock) [CD] Electric Light Orchestra (ELO) - The Very Best Of Vol. 1 & 2 (Japan Blu-Spec 2CD) - 2015, FLAC (image+.cue), lossless Omen
2 | 0

0 | 1311

12

2016-01-08 18:33
Omen Latest
./templates/default/images/folder_dl.gif Rock (Progressive, Art-Rock) Electric Light Orchestra & Jeff Lynne - Original Album Classics (5CD Box Set) - 2018 [MP3, track, 320 kbps] sergej644
1 | 0

0 | 733

0

2019-02-23 12:21
sergej644 Latest
Display posts from previous:    
Reply to topic

The time now is: Today 18:15

All times are GMT + 3 Hours



You cannot post new topics in this forum
You cannot reply to topics in this forum
You cannot edit your posts in this forum
You cannot delete your posts in this forum
You cannot vote in polls in this forum
You cannot attach files in this forum
You cannot download files in this forum