Сегодня идет свободное скачивание без начисления Download

Лучше не бывает / As Good As It Gets (Джеймс Брукс / James L.Brooks) [1997, США, мелодрама, BDRip 1080p] Dub +3MVO + 2AVO + Eng + Sub (rus,eng)

Ответить на тему
 
Автор
Сообщение

Delia ®

Пол:

Стаж: 6 лет 7 месяцев

Сообщений: 1930

Торрент-статистика

Пост 03-Июл-2012 10:40

[Цитировать]

Лучше не бывает / As Good as It Gets«A comedy from the heart that goes for the throat.»--
Год выпуска: 1997
Страна: США
Жанр: драма, мелодрама, комедия, ...
Продолжительность: 02:18:38
Перевод: Профессиональный (дублированный)
Субтитры: 1. Русские (Видеосервис) 2. Русские (Супербит) 3. Английские
Режиссер: Джеймс Л. Брукс
Сценарий: Марк Эндрус, Джеймс Л. Брукс
Продюсер: Джеймс Л. Брукс, Кристи Зиа, Бриджет Джонсон, ...
Оператор: Джон Бэйли
Композитор: Ханс Циммер
Художник: Билл Брзески, Филип Тулин, Молли Мэгиннис, ...
Монтаж: Ричард Маркс- В ролях: Джек Николсон (Jack Nicholson), Хелен Хант (Helen Hunt), Грег Киннер (Greg Kinnear), Кьюба Гудинг мл. (Cuba Gooding Jr.), Скит Ульрих (Skeet Ulrich), Ширли Найт (Shirley Knight), Ярдли Смит (Yeardley Smith), Люпе Онтиверос (Lupe Ontiveros), собака Джилл (Jill the Dog), собака Таймер (Timer the Dog), Билли Дог (Billy the Dog), Биби Остервальд (Bibi Osterwald), Росс Блекнер (Ross Bleckner), Бернадетт Балагтас (Bernadette Balagtas), Джаффе Коэн (Jaffe Cohen), Лори Килпэтрик (Laurie Kilpatrick), Элис Вон (Alice Vaughn), Брайан Дойл-Мюррей (Brian Doyle-Murray), Кристи Зиа (Kristi Zea), Энни Мэгиннис Тайпп (Annie Maginnis Tippe)
Дублёры: Станислав Концевич (Melvin Udall), Галина Чигинская (Carol Connelly), Олег Куликович (Simon Bishop), Сергей Паршин (Frank Sachs), Александр Баргман (Vincent Lopiano), Татьяна Иванова, Зинаида Шарко (Beverly Connelly), Людмила Безуглая, Алексей Гурьев (Carl), Юрий Дедович (Handyman John), Вадим Гущин (Carol's Date), Алексей Зубарев (Dr. Green)
Описание: Мелвин Адал, психически неуравновешенный эксцентричный писатель, ненавидит буквально всех вокруг. Из-за своего странного поведения он одинок и часто попадает в комичные ситуации. Но неожиданно его уединение нарушается.Мелвину приходится ухаживать за соседской собакой, и незаметно для себя он учится у нее доброте и преданности. За стеной собственного равнодушия ему открывается прекрасный мир человеческих чувств...-Рейтинг MPAA: -- --Качество: BDRip1080р
Формат: MKV
Видео кодек: H.264 (AVC)
Аудио кодеk: AC3
Видео: 1920x1040 (16:9), 23.976 fps, AVC, 4 321 Kbps
Аудио: AC3, 192 Kbps, 48.0 KHz, 2 ch
Отдельно на народ.ру:
AC3, 192 Kbps, 48.0 KHz, 2 ch (MVO , Видеосервис )
AC3, 192 Kbps, 48.0 KHz, 2 ch (MVO , ОРТ )
AC3, 384 Kbps, 48.0 KHz, 6 ch (MVO , Супербит )
AC3, 384 Kbps, 48.0 KHz, 6 ch ( AVO, Гаврилов )
AC3, 384 Kbps, 48.0 KHz, 6 ch (AVO, Живов )
AC3, 384 Kbps, 48.0 KHz, 6 ch (оригинал )

МедиаИнфо

Код:
General
Unique ID                                : 191556659983407169827514849072541982340 (0x901C78832146C96FA5F91AD33879DE84)
Complete name                            : C:\Users\Tatiana\Desktop\1\Luchshe ne bivaet(1997)BDRip-F.H.D.mkv
Format                                   : Matroska
Format version                           : Version 2
File size                                : 4.37 GiB
Duration                                 : 2h 18mn
Overall bit rate                         : 4 510 Kbps
Encoded date                             : UTC 2012-07-03 05:59:00
Writing application                      : mkvmerge v5.6.0 ('Kenya Kane') built on May 27 2012 16:44:04
Writing library                          : libebml v1.2.3 + libmatroska v1.3.0
Video
ID                                       : 1
Format                                   : AVC
Format/Info                              : Advanced Video Codec
Format profile                           : [email protected]
Format settings, CABAC                   : Yes
Format settings, ReFrames                : 4 frames
Codec ID                                 : V_MPEG4/ISO/AVC
Duration                                 : 2h 18mn
Bit rate                                 : 4 321 Kbps
Width                                    : 1 920 pixels
Height                                   : 1 040 pixels
Display aspect ratio                     : 16:9
Frame rate                               : 23.976 fps
Color space                              : YUV
Chroma subsampling                       : 4:2:0
Bit depth                                : 8 bits
Scan type                                : Progressive
Bits/(Pixel*Frame)                       : 0.090
Stream size                              : 4.09 GiB (94%)
Writing library                          : x264 core 125 r2200 999b753
Encoding settings                        : cabac=1 / ref=4 / deblock=1:0:0 / analyse=0x3:0x113 / me=umh / subme=10 / psy=1 / psy_rd=0.90:0.15 / mixed_ref=1 / me_range=48 / chroma_me=1 / trellis=2 / 8x8dct=1 / cqm=0 / deadzone=21,11 / fast_pskip=0 / chroma_qp_offset=-1 / threads=6 / lookahead_threads=1 / sliced_threads=0 / nr=0 / decimate=0 / interlaced=0 / bluray_compat=0 / constrained_intra=0 / bframes=7 / b_pyramid=2 / b_adapt=2 / b_bias=0 / direct=3 / weightb=1 / open_gop=0 / weightp=2 / keyint=240 / keyint_min=23 / scenecut=40 / intra_refresh=0 / rc=2pass / mbtree=0 / bitrate=4321 / ratetol=1.0 / qcomp=0.70 / qpmin=0 / qpmax=69 / qpstep=4 / cplxblur=20.0 / qblur=0.5 / ip_ratio=1.40 / pb_ratio=1.30 / aq=2:0.90
Language                                 : English
Default                                  : Yes
Forced                                   : No
Color primaries                          : BT.709-5, BT.1361, IEC 61966-2-4, SMPTE RP177
Transfer characteristics                 : BT.709-5, BT.1361
Matrix coefficients                      : BT.709-5, BT.1361, IEC 61966-2-4 709, SMPTE RP177
Audio
ID                                       : 2
Format                                   : AC-3
Format/Info                              : Audio Coding 3
Mode extension                           : CM (complete main)
Codec ID                                 : A_AC3
Duration                                 : 2h 18mn
Bit rate mode                            : Constant
Bit rate                                 : 192 Kbps
Channel(s)                               : 2 channels
Channel positions                        : Front: L R
Sampling rate                            : 48.0 KHz
Bit depth                                : 16 bits
Compression mode                         : Lossy
Stream size                              : 190 MiB (4%)
Language                                 : Russian
Default                                  : Yes
Forced                                   : No
Text #1
ID                                       : 3
Format                                   : UTF-8
Codec ID                                 : S_TEXT/UTF8
Codec ID/Info                            : UTF-8 Plain Text
Title                                    : (Видеосервис)
Language                                 : Russian
Default                                  : No
Forced                                   : No
Text #2
ID                                       : 4
Format                                   : UTF-8
Codec ID                                 : S_TEXT/UTF8
Codec ID/Info                            : UTF-8 Plain Text
Title                                    : (Супербит)
Language                                 : Russian
Default                                  : No
Forced                                   : No
Text #3
ID                                       : 5
Format                                   : UTF-8
Codec ID                                 : S_TEXT/UTF8
Codec ID/Info                            : UTF-8 Plain Text
Language                                 : English
Default                                  : No
Forced                                   : No

Знаете ли Вы, что...

» Роль Мэлвина Юдала первоначально предлагалась Джону Траволте. А роль Кэрол Коннели - Холли Хантер.
» Для того чтобы снять сцену, в которой собака подражает герою Николсона, переступая через трещины на тротуаре, на нем были размещены различные препятствия, заставляющие собаку поднимать лапки, а во время постпродакшена они были удалены на компьютере.
» Песика по кличке Верделл играли шесть собак породы Брюссельский гриффон.
» В 1998 году, на 70-ой церемонии вручения премии «Оскар», после того, как было объявлено имя победителя в номинации «Лучшая мужская роль», Джек Николсон, поднимаясь на сцену, имитировал переступание между щелями плит, подражая своему герою. Актёр посвятил свой третий «Оскар» коллеге по фильму «Несколько хороших парней» Джеймсу Томасу Уолшу, умершему 27 февраля 1998 года.
» Ширли Найт, сыгравшая в фильме Беверли Коннелли, предложила свою роль известной актрисе и защитнице прав животных Бетти Уайт, но та отказалась, узнав, что в фильме с собакой будут плохо обходиться.


Скриншоты

     
     

_________________
Человек – это канат, натянутый между животным и сверхчеловеком, – канат над пропастью.
В человеке ценно то, что он мост, а не цель. Фридрих Ницше
Вне форума [Профиль] [ЛС]
Похожие темы
Форум Тема Автор Торрент Отв. Посл. сообщение
./templates/default/images/folder_dl.gif Разное Жак Фреско | Все лучшее, что не купишь за деньги (2013) [MP3] Omen
1 | 0

0 | 482

13

2014-09-21 19:13
Omen Последнее
./templates/default/images/folder_dl.gif Видеотренинги Евгений Попов | 7 уроков по лучшему облачному мененджеру задач Wunderlist (2015) PCRec [H.264/720p-LQ] Omen
1 | 0

0 | 21

9

2015-08-05 21:36
Omen Последнее
./templates/default/images/folder_dl.gif Развлекательные телепередачи и шоу, приколы и юмор Михаил Задорнов. Самые острые вырезанные моменты из концертов. Лучшее (2016) WEBRip XP1971
2 | 0

0 | 573

13

2016-09-12 10:57
XP1971 Последнее
Показать сообщения:    
Ответить на тему

Текущее время: Сегодня 15:06

Часовой пояс: GMT + 3



Вы не можете начинать темы
Вы не можете отвечать на сообщения
Вы не можете редактировать свои сообщения
Вы не можете удалять свои сообщения
Вы не можете голосовать в опросах
Вы не можете прикреплять файлы к сообщениям
Вы не можете скачивать файлы