Today is a free download without charge Download

Hibike! Euphonium / Sound! Euphonium / Играй, эуфониум! [2015, TV, 13 ep + 7 SP] BDRip Hi10p 720p Raw+Rus x2(ext)

Reply to topic
 
Author
Message

Clavik ®

Gender:

Longevity: 6 years 6 months

Posts: 2454

Location: Украина

Торрент-статистика

Post 29-Dec-2015 00:42

[Quote]

Hibike! Euphonium / Sound! Euphonium / Играй, эуфониум!- Жанр: повседневность, музыкальный
Тип: TV-сериал
Продолжительность: 13 эпизодов и 7 спэшлов по 25 минут
Выпуск: c 08.04.2015 по 01.07.2015
Автор: Такэда Аяно
Режиссер: Исихара Тацуя
Производство: Kyoto Animation, Animation Do-Информационные ссылки: AniDB || World Art || MAL || ANN-Перевод:
  • Русские субтитры от BO3DYX & Матадор [TV 1-14 SP 1-2]
  • Русские субтитры от Sa4ko aka Kiyoso & Zenobian [SP 3-6]
-Описание:
Духовой оркестр Северной старшей школы городка Удзи переживает не лучшие времена. Выпускники, составляющие основу, утратили огонек, ребят второго года совсем мало, о конкурсах пришлось забыть. Надежда пришла в виде нового учителя музыки – молодого, но уже известного в нужных кругах Нобору Таки, и, конечно, вместе с новичками – ведь рядом Киото, культурная столица Японии, и концентрация юных музыкантов в округе просто запредельная.
Кумико Омаэ вступила в оркестр во многом по инерции – ведь она играла с начальной школы. Вместе с новыми подругами – контрабасисткой Сапфир и Хадзуки, выбравшей басовую тубу, она быстро поняла, что «в товарищах согласья нет», в коллективе тлеют застарелые конфликты, многие не хотят вообще ничего. Таки-сэнсэй здорово встряхнул сонное болото, и теперь Кумико надо выбирать, с кем она – с вялым большинством или с такими, как максималистка Рэйна? Думаю, ответ вам ясен?© Hollow, World Art-Качество: BDRip | Энкод: Winter
Формат: MKV
Видео: x264 (10 bit) 1280x720, ~3400 Kbps, 23.976 fps
Аудио: Vorbis, 256 Kbps, 48.0 kHz, 2 ch
Аудио: AC-3, 192 Kbps, 48.0 kHz, 2 ch (внешними файлами)
Субтитры: ASS, Полные | Надписи (внешними файлами) -

Список озвучек:

  • трехголосая от MezIdA & Aквapeлькa & ShadMG [1-11] / DemonOFmooN [12-13] (Anifilm) [TV 1-13]
  • многоголосая от SHIZA [TV 1-13]
    участники: GreyMoon, Aska, Hekomi, Oni, NesTea

Список эпизодов:

01. Welcome to High School
02. Nice to Meet You, Euphonium
03. The First Ensemble
04. Singing Solfege
05. Festival Time
06. Twinkle, Twinkle, Little Tuba
07. Crybaby Saxophone
08. Festival Triangle
09. Please, Audition
10. Straight Trumpet
11. Welcome Back, Audition
12. My Euphonium
13. Goodbye Competition
14 (SP). Running Monaka
SP 1-6

Тех. параметры:

Код:
General
Unique ID                   : 202710449296598195393806208644032389617 (0x98809CC87A5B8DA084F253BAA4CA61F1)
Complete name               : Hibike! Euphonium [BD] [720p]\[W] Hibike! Euphonium 01 [BDrip 1280x720 x264 Vorbis].mkv
Format                      : Matroska
Format version              : Version 2
File size                   : 633 MiB
Duration                    : 23mn 41s
Overall bit rate mode       : Variable
Overall bit rate            : 3 736 Kbps
Encoded date                : UTC 2015-07-18 16:18:51
Writing application         : mkvmerge v2.9.8 ('C'est le bon') built on Aug 13 2009 12:49:06
Writing library             : libebml v0.7.7 + libmatroska v0.8.1
Video
ID                          : 1
Format                      : AVC
Format/Info                 : Advanced Video Codec
Format profile              : High [url=mailto:[email protected]][email protected][/url]
Format settings, CABAC      : Yes
Format settings, ReFrames   : 9 frames
Codec ID                    : V_MPEG4/ISO/AVC
Duration                    : 23mn 41s
Bit rate                    : 3 406 Kbps
Width                       : 1 280 pixels
Height                      : 720 pixels
Display aspect ratio        : 16:9
Frame rate mode             : Constant
Frame rate                  : 23.976 (24000/1001) fps
Color space                 : YUV
Chroma subsampling          : 4:2:0
Bit depth                   : 10 bits
Scan type                   : Progressive
Bits/(Pixel*Frame)          : 0.154
Stream size                 : 577 MiB (91%)
Writing library             : x264 core 132 r2309 3b1f1f7
Encoding settings           : cabac=1 / ref=9 / deblock=1:-2:-2 / analyse=0x3:0x133 / me=umh / subme=9 / psy=1 / psy_rd=0.90:0.00 / mixed_ref=1 / me_range=24 / chroma_me=1 / trellis=2 / 8x8dct=1 / cqm=0 / deadzone=21,11 / fast_pskip=1 / chroma_qp_offset=-2 / threads=12 / lookahead_threads=2 / sliced_threads=0 / nr=0 / decimate=0 / interlaced=0 / bluray_compat=0 / constrained_intra=0 / bframes=8 / b_pyramid=2 / b_adapt=2 / b_bias=0 / direct=1 / weightb=1 / open_gop=0 / weightp=2 / keyint=250 / keyint_min=23 / scenecut=40 / intra_refresh=0 / rc=crf / mbtree=0 / crf=15.7 / qcomp=0.70 / qpmin=9 / qpmax=40 / qpstep=4 / ip_ratio=1.40 / pb_ratio=1.30 / aq=1:0.90
Default                     : No
Forced                      : No
Audio
ID                          : 2
Format                      : Vorbis
Format settings, Floor      : 1
Codec ID                    : A_VORBIS
Duration                    : 23mn 41s
Bit rate mode               : Variable
Bit rate                    : 256 Kbps
Channel(s)                  : 2 channels
Sampling rate               : 48.0 KHz
Detected bit depth          : 16 bits
Compression mode            : Lossy
Stream size                 : 43.4 MiB (7%)
Writing library             : libVorbis (Schaufenugget) (20101101 (Schaufenugget))
Language                    : Japanese
Default                     : Yes
Forced                      : No

Информация о релизе:

  • Выбор видео, перевода, озвучки, а также типа сборки материала осуществляется релизером и не подлежит обсуждению. Если вы считаете, что раздаваемый материал противоречит правилам раздела "Аниме", сообщите об этом одному из модераторов раздела.
  • В случае появления нового материала или же лучшего по качеству материала релизер оставляет за собой право обновить раздачу. В этом случае вам необходимо ознакомиться с изменениями (добавлениями) и перекачать торрент.
  • Данный релиз предназначен для просмотра на ПК. Воспроизведение на иных проигрывателях не гарантируется. Для просмотра рекомендуется Media Player Classic с установленным пакетом кодеков K-Lite.
  • Данный релиз содержит 10-битное видео (Hi10p). Для корректного воспроизведения обязательно используйте кодеки, поддерживающие 10-битное видео.
  • Данный релиз предназначен для просмотра с внешними субтитрами и внешними звуковыми дорожками.
    • Для просмотра с внешней звуковой дорожкой нужно:
      перекинуть файлы .mka из папки "RUS Sound []" в одну папку с видео и переключить звуковую дорожку в плеере при просмотре.
    • Для просмотра с субтитрами нужно:
      перекинуть файлы .ass из папки "RUS Subtitles []" в одну папку с видео - плеер подгрузит их автоматически при открытии видео.
-            -

_________________


Other forum [Profile] [PM]
Display posts from previous:    
Reply to topic

The time now is: Today 08:30

All times are GMT + 3 Hours



You cannot post new topics in this forum
You cannot reply to topics in this forum
You cannot edit your posts in this forum
You cannot delete your posts in this forum
You cannot vote in polls in this forum
You cannot attach files in this forum
You cannot download files in this forum