Сегодня идет свободное скачивание без начисления Download

Звёздные войны: Эпизод 6 – Возвращение Джедая / Star Wars: Episode VI - Return of the Jedi (Ричард Маркуэнд / Richard Marquand) [1983, Фантастика, Фэнтези, Боевик, Приключения, BDRip]

Ответить на тему
 
Автор
Сообщение

[email protected] ®

Стаж: 1 год 1 месяц

Сообщений: 2020

Торрент-статистика

Пост 02-Янв-2016 20:12

[Цитировать]

Звёздные войны: Эпизод 6 – Возвращение Джедая
Star Wars: Episode VI - Return of the Jedi

« The Saga Continues »
- Производство: США / 20th Century Fox Film Corporation, Lucasfilm Ltd.
Жанр: Фантастика, Фэнтези, Боевик, Приключения
Режиссер: Ричард Маркуэнд / Richard Marquand
Актеры: Марк Хэмилл, Харрисон Форд, Кэрри Фишер, Билли Ди Уильямс, Энтони Дэниелс, Питер Мейхью, Себастьян Шоу, Иен МакДермид, Фрэнк Оз, Джеймс Эрл Джонс, Дэвид Праус, Алек Гиннесс, Кенни Бейкер, Майкл Пеннингтон, Кеннет Колли, Майкл Картер, Дэнис Лосон, Тимоти М. Роуз, Дермот Краули, Кэролайн Блэкистон, Уорвик Дэвис, Джереми Буллок, Феми Тейлор, Энни Арбогаст, Клер Девенпорт
Описание: В заключительном шестом эпизоде «Звездных войн» Дарт Вейдер создает вторую «Звезду Смерти». Он объединяет все силы зла, чтобы с помощью этого смертоносного оружия нанести последний сокрушительный удар по повстанцам и их союзникам. Люк Скайуокер вместе с принцессой Лейей и верными дроидами R2D2 и C-3PO отправляется спасать своего друга Хана Соло, который попал в плен к отвратительному Джаббе Хатту - могущественному повелителю преступников. Повстанцы высаживаются на планету Эндор, чтобы оттуда вместе с Люком и его отрядом предпринять последнюю атаку на Имперский флот, атаку, от которой зависит судьба Галактики. В этом эпизоде Люк Скайуокер и Дарт Вейдер встречаются в последний раз… ибо из поединка между отцом и сыном живым выйдет только один…

Возраст: 0+ (для любой зрительской аудитории)
Рейтинг MPAA: PG (рекомендуется присутствие родителей)
Продолжительность: 02:14:47
Качество видео: BDRip
Перевод: Дублированный x2, профессиональный (многоголосый закадровый), профессиональный (двуголосый закадровый) x2, авторский (одноголосый закадровый) x2
Вид субтитров: Вшитые, отключаемые
Язык субтитров: Русский (Forced, Full), Английский
Видео: MPEG-4 AVC/H.264, 2200 Kbps, 1024x436
Аудио 1: Русский AC3 5.1, 384 Kbps, 48.0 KHz (Дублированный) Blu-ray CEE
Аудио 2: Русский AC3 5.1, 384 Kbps, 48.0 KHz (Дублированный) ОРТ
Аудио 3: Русский AC3 5.1, 384 Kbps, 48.0 KHz (Многоголосый закадровый) Киномания
Аудио 4: Русский AC3 5.1, 384 Kbps, 48.0 KHz (Двуголосый закадровый) Tycoon-Studio
Аудио 5: Русский AC3 5.1, 384 Kbps, 48.0 KHz (Двуголосый закадровый) П. Гланц и И. Королёва
Аудио 6: Русский AC3 5.1, 384 Kbps, 48.0 KHz (Одноголосый закадровый) А. Гаврилов
Аудио 7: Русский AC3 5.1, 384 Kbps, 48.0 KHz (Одноголосый закадровый) Ю. Живов
Аудио 8: Английский AC3 5.1, 448 Kbps, 48.0 KHz (Оригинал)

MediaInfo

Код:
Общее
Полное имя                               : Звездные войны 6.mkv
Формат                                   : Matroska
Версия формата                           : Version 1
Размер файла                             : 5,03 Гбайт
Продолжительность                        : 2 ч. 14 м.
Общий поток                              : 5342 Кбит/сек
Дата кодирования                         : UTC 2015-12-20 12:54:36
Программа кодирования                    : mkvmerge v2.4.1 ('Use Me') built on Dec  5 2008 18:30:05
Библиотека кодирования                   : libebml v0.7.7 + libmatroska v0.8.1
Видео
Идентификатор                            : 1
Формат                                   : AVC
Формат/Информация                        : Advanced Video Codec
Профиль формата                          : [url=mailto:[email protected]][email protected][/url]
Параметр CABAC формата                   : Да
Параметр ReFrames формата                : 10 кадров
Идентификатор кодека                     : V_MPEG4/ISO/AVC
Продолжительность                        : 2 ч. 14 м.
Битрейт                                  : 2200 Кбит/сек
Ширина                                   : 1024 пикселя
Высота                                   : 436 пикселей
Соотношение сторон                       : 2,35:1
Режим частоты кадров                     : Постоянный
Частота кадров                           : 23,976 кадра/сек
Цветовое пространство                    : YUV
Субдискретизация насыщенности            : 4:2:0
Битовая глубина                          : 8 бит
Тип развёртки                            : Прогрессивная
Бит/(Пиксели*Кадры)                      : 0.206
Размер потока                            : 1,98 Гбайт (39%)
Заголовок                                : Эпизод 6 – Возвращение Джедая (1983)
Библиотека кодирования                   : x264 core 146 r2538 121396c
Настройки программы                      : cabac=1 / ref=10 / deblock=1:-3:-3 / analyse=0x3:0x133 / me=umh / subme=10 / psy=1 / psy_rd=1.00:0.10 / mixed_ref=1 / me_range=48 / chroma_me=1 / trellis=2 / 8x8dct=1 / cqm=0 / deadzone=21,11 / fast_pskip=0 / chroma_qp_offset=-3 / threads=6 / lookahead_threads=1 / sliced_threads=0 / nr=0 / decimate=1 / interlaced=0 / bluray_compat=0 / constrained_intra=0 / bframes=5 / b_pyramid=2 / b_adapt=2 / b_bias=0 / direct=3 / weightb=1 / open_gop=0 / weightp=2 / keyint=240 / keyint_min=22 / scenecut=40 / intra_refresh=0 / rc_lookahead=40 / rc=2pass / mbtree=1 / bitrate=2200 / ratetol=1.0 / qcomp=0.60 / qpmin=10 / qpmax=51 / qpstep=4 / cplxblur=20.0 / qblur=0.5 / ip_ratio=1.40 / aq=1:1.00
Язык                                     : English
Default                                  : Да
Forced                                   : Нет
Аудио #1
Идентификатор                            : 2
Формат                                   : AC-3
Формат/Информация                        : Audio Coding 3
Расширение режима                        : CM (complete main)
Параметр Endianness формата              : Big
Идентификатор кодека                     : A_AC3
Продолжительность                        : 2 ч. 14 м.
Вид битрейта                             : Постоянный
Битрейт                                  : 384 Кбит/сек
Каналы                                   : 6 каналов
Расположение каналов                     : Front: L C R, Side: L R, LFE
Частота                                  : 48,0 КГц
Метод сжатия                             : С потерями
Размер потока                            : 370 Мбайт (7%)
Заголовок                                : AC3 (Дублированный) Blu-ray CEE
Язык                                     : Russian
Default                                  : Да
Forced                                   : Нет
Аудио #2
Идентификатор                            : 3
Формат                                   : AC-3
Формат/Информация                        : Audio Coding 3
Расширение режима                        : CM (complete main)
Параметр Endianness формата              : Big
Идентификатор кодека                     : A_AC3
Продолжительность                        : 2 ч. 14 м.
Вид битрейта                             : Постоянный
Битрейт                                  : 384 Кбит/сек
Каналы                                   : 6 каналов
Расположение каналов                     : Front: L C R, Side: L R, LFE
Частота                                  : 48,0 КГц
Метод сжатия                             : С потерями
Размер потока                            : 370 Мбайт (7%)
Заголовок                                : AC3 (Дублированный) ОРТ
Язык                                     : Russian
Default                                  : Нет
Forced                                   : Нет
Аудио #3
Идентификатор                            : 4
Формат                                   : AC-3
Формат/Информация                        : Audio Coding 3
Расширение режима                        : CM (complete main)
Параметр Endianness формата              : Big
Идентификатор кодека                     : A_AC3
Продолжительность                        : 2 ч. 14 м.
Вид битрейта                             : Постоянный
Битрейт                                  : 384 Кбит/сек
Каналы                                   : 6 каналов
Расположение каналов                     : Front: L C R, Side: L R, LFE
Частота                                  : 48,0 КГц
Метод сжатия                             : С потерями
Размер потока                            : 370 Мбайт (7%)
Заголовок                                : AC3 (Многоголосый) Киномания
Язык                                     : Russian
Default                                  : Нет
Forced                                   : Нет
Аудио #4
Идентификатор                            : 5
Формат                                   : AC-3
Формат/Информация                        : Audio Coding 3
Расширение режима                        : CM (complete main)
Параметр Endianness формата              : Big
Идентификатор кодека                     : A_AC3
Продолжительность                        : 2 ч. 14 м.
Вид битрейта                             : Постоянный
Битрейт                                  : 384 Кбит/сек
Каналы                                   : 6 каналов
Расположение каналов                     : Front: L C R, Side: L R, LFE
Частота                                  : 48,0 КГц
Метод сжатия                             : С потерями
Размер потока                            : 370 Мбайт (7%)
Заголовок                                : AC3 (Двухголосый) Tycoon-Studio
Язык                                     : Russian
Default                                  : Нет
Forced                                   : Нет
Аудио #5
Идентификатор                            : 6
Формат                                   : AC-3
Формат/Информация                        : Audio Coding 3
Расширение режима                        : CM (complete main)
Параметр Endianness формата              : Big
Идентификатор кодека                     : A_AC3
Продолжительность                        : 2 ч. 14 м.
Вид битрейта                             : Постоянный
Битрейт                                  : 384 Кбит/сек
Каналы                                   : 6 каналов
Расположение каналов                     : Front: L C R, Side: L R, LFE
Частота                                  : 48,0 КГц
Метод сжатия                             : С потерями
Размер потока                            : 370 Мбайт (7%)
Заголовок                                : AC3 (Двухголосый) П. Гланц и И. Королёва
Язык                                     : Russian
Default                                  : Нет
Forced                                   : Нет
Аудио #6
Идентификатор                            : 7
Формат                                   : AC-3
Формат/Информация                        : Audio Coding 3
Расширение режима                        : CM (complete main)
Параметр Endianness формата              : Big
Идентификатор кодека                     : A_AC3
Продолжительность                        : 2 ч. 14 м.
Вид битрейта                             : Постоянный
Битрейт                                  : 384 Кбит/сек
Каналы                                   : 6 каналов
Расположение каналов                     : Front: L C R, Side: L R, LFE
Частота                                  : 48,0 КГц
Метод сжатия                             : С потерями
Размер потока                            : 370 Мбайт (7%)
Заголовок                                : AC3 (Одноголосый) А. Гаврилов
Язык                                     : Russian
Default                                  : Нет
Forced                                   : Нет
Аудио #7
Идентификатор                            : 8
Формат                                   : AC-3
Формат/Информация                        : Audio Coding 3
Расширение режима                        : CM (complete main)
Параметр Endianness формата              : Big
Идентификатор кодека                     : A_AC3
Продолжительность                        : 2 ч. 14 м.
Вид битрейта                             : Постоянный
Битрейт                                  : 384 Кбит/сек
Каналы                                   : 6 каналов
Расположение каналов                     : Front: L C R, Side: L R, LFE
Частота                                  : 48,0 КГц
Метод сжатия                             : С потерями
Размер потока                            : 370 Мбайт (7%)
Заголовок                                : AC3 (Одноголосый) Ю. Живов
Язык                                     : Russian
Default                                  : Нет
Forced                                   : Нет
Аудио #8
Идентификатор                            : 9
Формат                                   : AC-3
Формат/Информация                        : Audio Coding 3
Расширение режима                        : CM (complete main)
Параметр Endianness формата              : Big
Идентификатор кодека                     : A_AC3
Продолжительность                        : 2 ч. 14 м.
Вид битрейта                             : Постоянный
Битрейт                                  : 448 Кбит/сек
Каналы                                   : 6 каналов
Расположение каналов                     : Front: L C R, Side: L R, LFE
Частота                                  : 48,0 КГц
Метод сжатия                             : С потерями
Размер потока                            : 432 Мбайт (8%)
Заголовок                                : AC3 (Оригинал)
Язык                                     : English
Default                                  : Нет
Forced                                   : Нет
Текст #1
Идентификатор                            : 10
Формат                                   : UTF-8
Идентификатор кодека                     : S_TEXT/UTF8
Идентификатор кодека/Информация          : UTF-8 Plain Text
Заголовок                                : Русские (Форсированные)
Язык                                     : Russian
Default                                  : Да
Forced                                   : Нет
Текст #2
Идентификатор                            : 11
Формат                                   : UTF-8
Идентификатор кодека                     : S_TEXT/UTF8
Идентификатор кодека/Информация          : UTF-8 Plain Text
Заголовок                                : Русские
Язык                                     : Russian
Default                                  : Нет
Forced                                   : Нет
Текст #3
Идентификатор                            : 12
Формат                                   : UTF-8
Идентификатор кодека                     : S_TEXT/UTF8
Идентификатор кодека/Информация          : UTF-8 Plain Text
Заголовок                                : Английские
Язык                                     : English
Default                                  : Нет
Forced                                   : Нет
Скриншоты:
       
Вне форума [Профиль] [ЛС]
Похожие темы
Форум Тема Автор Торрент Отв. Посл. сообщение
./templates/default/images/folder_dl.gif Мультфильмы в формате 3D Звёздные собаки: Белка и Стрелка в 3Д / 3D (Святослав Ушаков, Инна Евланникова) [2010, Мультфильм, Приключения, Комедия, BDrip-AVC] Half OverUnder / Вертикальная анаморфная стереопара zhuk.m
1 | 0

0 | 2258

23

2012-01-22 16:51
zhuk.m Последнее
./templates/default/images/folder_dl.gif Фантастика, фэнтези, ужасы, мистика Книжная серия | Звёзды мировой фантастики [18 книг.] (2014-2015) [FB2] (Обновляемая) O.S.A.
1 | 0

3 | 1429

5

2015-04-12 20:56
Геннадич Последнее
./templates/default/images/folder_dl.gif Историческая литература Борис Акунин | Бох и Шельма. Звездуха (2014) [FB2] Omen
1 | 0

0 | 4014

22

2014-11-30 13:28
Omen Последнее
./templates/default/images/folder_dl.gif Книги для IPhone, IPod, Apple Форстер Э, Кинг С, Шекли Р, Вагнер К, Матесон Р, Пол Ф, Рыбаков В, Сильверберг Р, Рейнольдс А, Лукьяненко С, Эллисон Х, Браун Ф, Лавкрафт Г, и др - Созвездие Льва 2: Всадники Апокалипсиса [Булдаков Олег, 2016, Фантастика, 192Kbps], M4B VHS
1 | 0

0 | 213

1

2016-07-26 17:32
VHS Последнее
Показать сообщения:    
Ответить на тему

Текущее время: Сегодня 02:55

Часовой пояс: GMT + 3



Вы не можете начинать темы
Вы не можете отвечать на сообщения
Вы не можете редактировать свои сообщения
Вы не можете удалять свои сообщения
Вы не можете голосовать в опросах
Вы не можете прикреплять файлы к сообщениям
Вы не можете скачивать файлы