Сегодня идет свободное скачивание без начисления Download

Ганди / Gandhi (Ричард Аттенборо) [1982 г., драма, биография, история, HDRip]

Ответить на тему
 
Автор
Сообщение

Region_13 ®

Пол:

Стаж: 2 года 10 месяцев

Сообщений: 923

Откуда: Мальдивы

Торрент-статистика

Пост 13-Янв-2016 12:55

[Цитировать]

Ганди / Gandhi
Год выпуска: 1982
Страна: Великобритания, Индия
Жанр: драма, биография, история
Продолжительность: 191 мин. / 03:11
Перевод: Профессиональный(дублированный)cубтитры: русские, английские (внешние)
Режиссер: Ричард Аттенборо
Продюссер: Ричард Аттенборо, Рэни Дюбэ, Суреш Джиндал
Сценарий: Джон Брайли
Бюджет: $22 000 000
Премьера в мире: 30 ноября 1982
рейтинг PG рекомендуется присутствие родителей


В ролях: Бен Кингсли, Кэндис Берген, Эдвард Фокс, Джон Гилгуд, Тревор Ховард, Джон Миллз, Мартин Шин, Иэн Чарлсон, Атол Фугард, Гюнтер Мария Халмер
Описание: В 1869 году, когда Ганди родился, его страна ещё была украшением Британской империи и одной из драгоценностей королевы Виктории. 30 января 1948 года, в день его убийства, Индия была свободной. Это стало плодом его трудов, трудов долгой титанической жизни.

Качество: HDRip
Формат: AVI
Видео кодек: XviD
Аудио кодек: AC3
Видео: 720x304 (2.37:1), 23.976 fps, XviD build 50 ~1249 kbps avg, 0.24 bit/pixel
Аудио #1: Русский:48 kHz, AC3 Dolby Digital, 2/0 (L,R) ch, ~192 kbps[Профессиональный (полное дублирование)]
Аудио #2:Русский:48 kHz, AC3 Dolby Digital, 2/0 (L,R) ch, ~192 kbps[Авторский (Одноголосый) Ю. Живов]
Аудио #3:Английский:48 kHz, AC3 Dolby Digital, 2/0 (L,R) ch, ~192 kbps [Оригинал](отдельным файлом)

Скриншоты

       

Mediainfo

General
Complete name : F:\TORRENTS\ФИЛЬМЫ\Gandi.1982.BDRip\Gandi.1982.BDRip.avi
Format : AVI
Format/Info : Audio Video Interleave
Format profile : OpenDML
File size : 2.19 GiB
Duration : 3h 11mn
Overall bit rate : 1 640 Kbps
Writing application : VirtualDubMod 1.5.10.2 (build 2540/release)
Writing library : VirtualDubMod build 2540/release
Video
ID : 0
Format : MPEG-4 Visual
Format profile : Advanced [email protected]
Format settings, BVOP : 2
Format settings, QPel : No
Format settings, GMC : No warppoints
Format settings, Matrix : Custom
Codec ID : XVID
Codec ID/Hint : XviD
Duration : 3h 11mn
Bit rate : 1 238 Kbps
Width : 720 pixels
Height : 304 pixels
Display aspect ratio : 2.35:1
Frame rate : 23.976 fps
Color space : YUV
Chroma subsampling : 4:2:0
Bit depth : 8 bits
Scan type : Progressive
Compression mode : Lossy
Bits/(Pixel*Frame) : 0.236
Stream size : 1.65 GiB (75%)
Writing library : XviD 1.2.1 (UTC 2008-12-04)
Audio #1
ID : 1
Format : AC-3
Format/Info : Audio Coding 3
Mode extension : CM (complete main)
Format settings, Endianness : Big
Codec ID : 2000
Duration : 3h 11mn
Bit rate mode : Constant
Bit rate : 192 Kbps
Channel count : 2 channels
Channel positions : Front: L R
Sampling rate : 48.0 KHz
Bit depth : 16 bits
Compression mode : Lossy
Stream size : 263 MiB (12%)
Alignment : Split accross interleaves
Interleave, duration : 42 ms (1.00 video frame)
Interleave, preload duration : 500 ms
Audio #2
ID : 2
Format : AC-3
Format/Info : Audio Coding 3
Mode extension : CM (complete main)
Format settings, Endianness : Big
Codec ID : 2000
Duration : 3h 11mn
Bit rate mode : Constant
Bit rate : 192 Kbps
Channel count : 2 channels
Channel positions : Front: L R
Sampling rate : 48.0 KHz
Bit depth : 16 bits
Compression mode : Lossy
Stream size : 263 MiB (12%)
Alignment : Split accross interleaves
Interleave, duration : 42 ms (1.00 video frame)
Interleave, preload duration : 500 ms

_________________
Вне форума [Профиль] [ЛС]
Показать сообщения:    
Ответить на тему

Текущее время: Сегодня 10:58

Часовой пояс: GMT + 3



Вы не можете начинать темы
Вы не можете отвечать на сообщения
Вы не можете редактировать свои сообщения
Вы не можете удалять свои сообщения
Вы не можете голосовать в опросах
Вы не можете прикреплять файлы к сообщениям
Вы не можете скачивать файлы