Сегодня идет свободное скачивание без начисления Download

Уродцы / Freaks (Тод Броунинг) [1932 г., ужасы, драма, DVDRip]

Ответить на тему
 
Автор
Сообщение

Region_13 ®

Пол:

Стаж: 2 года 10 месяцев

Сообщений: 923

Откуда: Мальдивы

Торрент-статистика

Пост 15-Янв-2016 14:30

[Цитировать]

Уродцы / Freaks
Год выпуска: 1932
Страна: США
Жанр: ужасы, драма
Продолжительность: 64 мин. / 01:04
Перевод: Профессиональный (многоголосый закадровый)
Режиссер: Тод Броунинг
Продюссер: Тод Браунинг, Дуэйн Эспер, Гарри Рапф
Сценарий: Виллис Голдбек, Леон Гордон, Чарльз МакАртур
Бюджет: $310 607
Премьера в мире: 20 февраля 1932
+18


В ролях: Уоллас Форд,Ольга Бакланова,Лейла Хайамс,Генри Виктор
Описание: В бродячей цирковой труппе вместе с «нормальными» актёрами выступают люди с экстремальными отклонениями в физическом развитии. Красавица-гимнастка (Ольга Бакланова) случайно узнаёт, что восхищённый её красотой лилипут Ганс (Гарри Эрлс) унаследовал крупное состояние. Она притворяется, что любит Ганса, и заставляет его расстаться с карлицей Фридой (Дэйзи Эрлс), с которой он помолвлен. Клеопатра и Ганс играют свадьбу, гостями на которой становятся все цирковые уродцы труппы и любовник Клеопатры силач Геркулес (Генри Виктор). Уродцы хотят провести ритуал принятия Клеопатры в «свой круг», но опьяневшая красавица и Геркулес начинают над ними издеваться. Карлики понимают, что Клеопатра далеко не так великодушна, как выглядит, и начинают за ней следить.
Параллельно развивается история клоуна Фросо (Уоллас Форд) и танцовщицы Венеры (Лейла Хайамс), которую только что бросил Геркулес. Фросо и Венера — два одиноких человека, в которых доброта и одиночество рождает взаимную привязанность. Они живут бок о бок с цирковыми уродцами, но относятся к ним с той же человечностью, что и друг к другу, в то время как другие циркачи постоянно третируют их.

Доп. информация: В фильме снималась самая впечатляющая группа актёров с физическими отклонениями за всю историю кинематографа. Тод Броунинг пригласил на кастинг большинство известных цирковых уродцев из всех бродячих цирков США.
Ряд актёров, уже утверждённых на роли в фильме, отказались от участия в нём, чтобы не сниматься вместе с «балаганными уродами» — это были Виктор Маклаглен (Геркулес), Мирна Лой (Клеопатра) и Джин Харлоу (Венера).

Качество: DVDRip
Формат: AVI
Видео кодек: XviD
Аудио кодек: AC3
Видео: 1349 Кбит/сек,640*480,в 25 кадр/сек
Аудио: 192 Кбит/сек, 48КГц,1 канал

Скриншоты

       

MEDIAINFO

General
Complete name : D:\Релизы\Urodsy..avi
Format : AVI
Format/Info : Audio Video Interleave
File size : 744 MiB
Duration : 59mn 30s
Overall bit rate : 1 748 Kbps
Movie name : Уродцы / Freaks (1932)
Video
ID : 0
Format : MPEG-4 Visual
Format profile : Advanced [email protected]
Format settings, BVOP : 1
Format settings, QPel : No
Format settings, GMC : No warppoints
Format settings, Matrix : Custom
Codec ID : XVID
Codec ID/Hint : XviD
Duration : 59mn 30s
Bit rate : 1 349 Kbps
Width : 640 pixels
Height : 480 pixels
Display aspect ratio : 4:3
Frame rate : 25.000 fps
Color space : YUV
Chroma subsampling : 4:2:0
Bit depth : 8 bits
Scan type : Progressive
Compression mode : Lossy
Bits/(Pixel*Frame) : 0.176
Stream size : 574 MiB (77%)
Writing library : XviD 1.1.2 (UTC 2006-11-01)
Audio #1
ID : 1
Format : AC-3
Format/Info : Audio Coding 3
Mode extension : CM (complete main)
Format settings, Endianness : Big
Codec ID : 2000
Duration : 59mn 30s
Bit rate mode : Constant
Bit rate : 192 Kbps
Channel count : 1 channel
Channel positions : Front: C
Sampling rate : 48.0 KHz
Bit depth : 16 bits
Compression mode : Lossy
Stream size : 81.7 MiB (11%)
Alignment : Aligned on interleaves
Interleave, duration : 40 ms (1.00 video frame)
Interleave, preload duration : 512 ms
Language : Русский / English
Audio #2
ID : 2
Format : AC-3
Format/Info : Audio Coding 3
Mode extension : CM (complete main)
Format settings, Endianness : Big
Codec ID : 2000
Duration : 59mn 30s
Bit rate mode : Constant
Bit rate : 192 Kbps
Channel count : 1 channel
Channel positions : Front: C
Sampling rate : 48.0 KHz
Bit depth : 16 bits
Compression mode : Lossy
Stream size : 81.7 MiB (11%)
Alignment : Split accross interleaves
Interleave, duration : 40 ms (1.00 video frame)
Interleave, preload duration : 500 ms

_________________
Вне форума [Профиль] [ЛС]
Показать сообщения:    
Ответить на тему

Текущее время: Сегодня 22:19

Часовой пояс: GMT + 3



Вы не можете начинать темы
Вы не можете отвечать на сообщения
Вы не можете редактировать свои сообщения
Вы не можете удалять свои сообщения
Вы не можете голосовать в опросах
Вы не можете прикреплять файлы к сообщениям
Вы не можете скачивать файлы