Сегодня идет свободное скачивание без начисления Download

Человек за солнцем / Hei tai yang 731 (Тун Фей Моу) [1988 г., ужасы, драма, военный, история, DVDRip](L1)

Ответить на тему
 
Автор
Сообщение

Region_13 ®

Пол:

Стаж: 3 года 9 месяцев

Сообщений: 919

Откуда: Мальдивы

Торрент-статистика

Пост 15-Янв-2016 15:06

[Цитировать]

Человек за солнцем / Hei tai yang 731
Год выпуска: 1988
Страна: Гонконг, Китай
Жанр: ужасы, драма, военный, история
Продолжительность: 90 мин. / 01:30
Перевод: Любительский (одноголосый закадровый)
Режиссер: Тун Фей Моу
Продюссер: Фу Чи, Хунг Чу
Сценарий: Мей Лью, Вэнь Йуан Моу, Дан Джин Тенг
Бюджет: неизвестно
Премьера в мире: 21 мая 1988
+18


В ролях: Хсю Гоу, Ти Лонг Джин, Чжаохуа Мэй, Чжэ Квон, Ган Ван
Описание: В 40-х годах японское командование в оккупированной Манчжурии создало концентрационный «Лагерь 731». Узники, чаще китайцы, были материалом для испытаний переносимости экстремальных условий, например, холод, высота, а также для испытаний бактериологического оружия. Среди японцев кто сразу, а кто постепенно привыкает к мысли, что узники не люди, а исходный материал. Ярче всего это происходит у команды мобилизованных подростков.

Качество: DVDRip
Формат: AVI
Видео кодек:XviD
Аудио кодек: MP3
Видео:624x336 (1.34:1), 25 fps, XviD build 65 ~825 kbps avg, 0.157 bit/pixel
Аудио: 48 kHz, MPEG Layer 3, 2/0 (L, R) ch, ~128 kbps avg

Скриншоты

                   

Mediainfo

General
Complete name : D:\Релизы\Men.Behind.the.Sun.1988.VO.DVDRip.700MB.avi
Format : AVI
Format/Info : Audio Video Interleave
File size : 693 MiB
Duration : 1h 41mn
Overall bit rate : 959 Kbps
Video
ID : 0
Format : MPEG-4 Visual
Format profile : Advanced [email protected]
Format settings, BVOP : 1
Format settings, QPel : No
Format settings, GMC : No warppoints
Format settings, Matrix : Default (H.263)
Muxing mode : Packed bitstream
Codec ID : XVID
Codec ID/Hint : XviD
Duration : 1h 41mn
Bit rate : 825 Kbps
Width : 624 pixels
Height : 336 pixels
Display aspect ratio : 1.85:1
Frame rate : 25.000 fps
Color space : YUV
Chroma subsampling : 4:2:0
Bit depth : 8 bits
Scan type : Progressive
Compression mode : Lossy
Bits/(Pixel*Frame) : 0.157
Stream size : 596 MiB (86%)
Writing library : XviD 1.2.1 (UTC 2008-12-04)
Audio
ID : 1
Format : MPEG Audio
Format version : Version 1
Format profile : Layer 3
Mode : Joint stereo
Mode extension : MS Stereo
Codec ID : 55
Codec ID/Hint : MP3
Duration : 1h 41mn
Bit rate mode : Constant
Bit rate : 128 Kbps
Channel count : 2 channels
Sampling rate : 48.0 KHz
Compression mode : Lossy
Stream size : 92.5 MiB (13%)
Alignment : Aligned on interleaves
Interleave, duration : 160 ms (4.00 video frames)
Interleave, preload duration : 216 ms
Title : VO
Writing library : LAME3.98.2

_________________
Вне форума [Профиль] [ЛС]
Похожие темы
Форум Тема Автор Торрент Отв. Посл. сообщение
./templates/default/images/folder_dl.gif Медицина и Здоровье Сергей Бубновский - Здоровые сосуды, или Зачем человеку мышцы? [2012] [FB2] Omen
0 | 1

0 | 668

7

2013-01-01 12:14
Omen Последнее
./templates/default/images/folder_dl.gif Медицина и Здоровье Г.Белоголовский | Анатомия человека для массажистов [2007] [Pdf] UndegraundMen
1 | 0

0 | 548

10

2013-04-11 00:04
UndegraundMen Последнее
./templates/default/images/folder_dl.gif Медицина и Здоровье Л.Г.Пучко | Жизнь и здоровье человека в вопросах и ответах Многомерной медицины [2010] [PDF] sashau
0 | 1

0 | 400

3

2013-05-27 17:34
sashau Последнее
./templates/default/images/folder_dl.gif Обучающее видео Сергей Вячеславович Савельев - Управление мозгом человека [2015, лекция, наука, морфология, эволюция, CAMRip, rus] Omen
1 | 0

0 | 1381

21

2015-04-20 18:00
Omen Последнее
./templates/default/images/folder_dl.gif Медицина и Здоровье Виталий Волович | С природой один на один (Человек в условиях автономного существования) (2010) [FB2] Omen
1 | 0

0 | 288

5

2015-06-12 15:39
Omen Последнее
./templates/default/images/folder_dl.gif RPG The Underground Man / Подземный человек [RePack] [RUS/ENG] (2016) Omen
1 | 0

0 | 270

1

2016-09-02 01:00
Omen Последнее
./templates/default/images/folder_dl.gif Обучающая и развивающая литература, учебники Г. Л. Билич - Анатомия человека. Большой популярный атлас [2015, PDF, RUS] XP1971
1 | 0

0 | 2000

11

2017-01-11 12:10
XP1971 Последнее
./templates/default/images/folder_dl.gif Медицина и Здоровье Винсент Перез | Большой атлас анатомии человека (2013) [PDF] }{@R0N
1 | 0

0 | 2112

2

2017-02-03 21:08
}{@R0N Последнее
./templates/default/images/folder_dl.gif Новинки (HD|DVD|BD|WEB|TV|SAT|PDTV|-Rip) Человек-паук: Возвращение домой / Spider-Man: Homecoming (Джон Уоттс) [2017 г., Фантастика, боевик, приключения, WEB-DLRip-AVC] DUB | iTunes Theseus
1 | 0

0 | 5140

6

2017-09-28 12:30
Theseus Последнее
./templates/default/images/folder_dl.gif Новинки (BD|HDTV|DVD) Человек-паук: Возвращение домой / Spider-Man: Homecoming (Джон Уоттс) [2017 г., Фантастика, боевик, приключения, WEB-DL 1080p] DUB | iTunes Theseus
2 | 0

0 | 5156

6

2017-09-28 12:53
Theseus Последнее
Показать сообщения:    
Ответить на тему

Текущее время: Сегодня 17:18

Часовой пояс: GMT + 3



Вы не можете начинать темы
Вы не можете отвечать на сообщения
Вы не можете редактировать свои сообщения
Вы не можете удалять свои сообщения
Вы не можете голосовать в опросах
Вы не можете прикреплять файлы к сообщениям
Вы не можете скачивать файлы