Сегодня идет свободное скачивание без начисления Download

Человек за солнцем / Hei tai yang 731 (Тун Фей Моу) [1988 г., ужасы, драма, военный, история, DVDRip](L1)

Ответить на тему
 
Автор
Сообщение

Region_13 ®

Пол:

Стаж: 3 года 1 месяц

Сообщений: 923

Откуда: Мальдивы

Торрент-статистика

Пост 15-Янв-2016 15:06

[Цитировать]

Человек за солнцем / Hei tai yang 731
Год выпуска: 1988
Страна: Гонконг, Китай
Жанр: ужасы, драма, военный, история
Продолжительность: 90 мин. / 01:30
Перевод: Любительский (одноголосый закадровый)
Режиссер: Тун Фей Моу
Продюссер: Фу Чи, Хунг Чу
Сценарий: Мей Лью, Вэнь Йуан Моу, Дан Джин Тенг
Бюджет: неизвестно
Премьера в мире: 21 мая 1988
+18


В ролях: Хсю Гоу, Ти Лонг Джин, Чжаохуа Мэй, Чжэ Квон, Ган Ван
Описание: В 40-х годах японское командование в оккупированной Манчжурии создало концентрационный «Лагерь 731». Узники, чаще китайцы, были материалом для испытаний переносимости экстремальных условий, например, холод, высота, а также для испытаний бактериологического оружия. Среди японцев кто сразу, а кто постепенно привыкает к мысли, что узники не люди, а исходный материал. Ярче всего это происходит у команды мобилизованных подростков.

Качество: DVDRip
Формат: AVI
Видео кодек:XviD
Аудио кодек: MP3
Видео:624x336 (1.34:1), 25 fps, XviD build 65 ~825 kbps avg, 0.157 bit/pixel
Аудио: 48 kHz, MPEG Layer 3, 2/0 (L, R) ch, ~128 kbps avg

Скриншоты

                   

Mediainfo

General
Complete name : D:\Релизы\Men.Behind.the.Sun.1988.VO.DVDRip.700MB.avi
Format : AVI
Format/Info : Audio Video Interleave
File size : 693 MiB
Duration : 1h 41mn
Overall bit rate : 959 Kbps
Video
ID : 0
Format : MPEG-4 Visual
Format profile : Advanced [email protected]
Format settings, BVOP : 1
Format settings, QPel : No
Format settings, GMC : No warppoints
Format settings, Matrix : Default (H.263)
Muxing mode : Packed bitstream
Codec ID : XVID
Codec ID/Hint : XviD
Duration : 1h 41mn
Bit rate : 825 Kbps
Width : 624 pixels
Height : 336 pixels
Display aspect ratio : 1.85:1
Frame rate : 25.000 fps
Color space : YUV
Chroma subsampling : 4:2:0
Bit depth : 8 bits
Scan type : Progressive
Compression mode : Lossy
Bits/(Pixel*Frame) : 0.157
Stream size : 596 MiB (86%)
Writing library : XviD 1.2.1 (UTC 2008-12-04)
Audio
ID : 1
Format : MPEG Audio
Format version : Version 1
Format profile : Layer 3
Mode : Joint stereo
Mode extension : MS Stereo
Codec ID : 55
Codec ID/Hint : MP3
Duration : 1h 41mn
Bit rate mode : Constant
Bit rate : 128 Kbps
Channel count : 2 channels
Sampling rate : 48.0 KHz
Compression mode : Lossy
Stream size : 92.5 MiB (13%)
Alignment : Aligned on interleaves
Interleave, duration : 160 ms (4.00 video frames)
Interleave, preload duration : 216 ms
Title : VO
Writing library : LAME3.98.2

_________________
Вне форума [Профиль] [ЛС]
Похожие темы
Форум Тема Автор Торрент Отв. Посл. сообщение
./templates/default/images/folder_dl.gif Разное А.А. Юдина | Человек-волк и Зигмунд Фрейд [1996] [DOC] UndegraundMen
0 | 1

0 | 705

2

2013-08-17 23:11
UndegraundMen Последнее
./templates/default/images/folder_dl.gif Обучающее видео Происхождение Человека / Human Origins Fall B 2015 [2015, Палеоантропология, WEBRip, ENG] (Видеоурок) Omen
1 | 0

0 | 439

7

2015-12-02 12:57
Omen Последнее
./templates/default/images/folder_dl.gif Разное Ирина Блохина | Всё, что должен знать образованный человек (2017) [FB2] moralis
1 | 0

0 | 2563

9

2017-01-20 17:12
moralis Последнее
Показать сообщения:    
Ответить на тему

Текущее время: Сегодня 02:19

Часовой пояс: GMT + 3



Вы не можете начинать темы
Вы не можете отвечать на сообщения
Вы не можете редактировать свои сообщения
Вы не можете удалять свои сообщения
Вы не можете голосовать в опросах
Вы не можете прикреплять файлы к сообщениям
Вы не можете скачивать файлы