Сегодня идет свободное скачивание без начисления Download

Конструктор красного цвета / Konstruktor krasnogo tsveta (Андрей И, Армен Петросян) [1993 г., документальный, фантастика, триллер, VHSRip]

Ответить на тему
 
Автор
Сообщение

Region_13 ®

Пол:

Стаж: 4 года

Сообщений: 919

Откуда: Мальдивы

Торрент-статистика

Пост 15-Янв-2016 16:38

[Цитировать]

Конструктор красного цвета / Konstruktor krasnogo tsveta
Год выпуска: 1993
Страна: Россия
Жанр: документальный, фантастика, триллер
Продолжительность: 70 мин. / 01:10
Перевод: Не требуется
Режиссер: Андрей И, Армен Петросян
Продюссер: Роман Криштул
Сценарий: Андрей И
Бюджет: неизвестно
Премьера в мире: 11 сентября 1993
+18


В ролях: Анна Семкина
Описание: Палец с ноги — на руку. Трупная кровь — в живой организм — Конструктор. В какой-то момент сборки он действительно будет красного цвета…

Качество: VHSRip
Формат: AVI
Видео кодек: XviD
Аудио кодек: MP3
Видео: 528x400 (4:3), 25 fps, XviD MPEG-4 ~2466 kbps avg, 0.46 bit/pixel
Аудио: 48 kHz, MPEG Layer 3, 2 ch, ~224.00 kbps avg

Скриншоты

         

Mediainfo

General
Complete name : D:\Релизы\Engineering Red.avi
Format : AVI
Format/Info : Audio Video Interleave
File size : 1.42 GiB
Duration : 1h 15mn
Overall bit rate : 2 697 Kbps
Writing application : VirtualDubMod 1.5.4.1 (build 2178/release)
Writing library : VirtualDubMod build 2178/release
Video
ID : 0
Format : MPEG-4 Visual
Format profile : Advanced [email protected]
Format settings, BVOP : 1
Format settings, QPel : No
Format settings, GMC : No warppoints
Format settings, Matrix : Custom
Codec ID : XVID
Codec ID/Hint : XviD
Duration : 1h 15mn
Bit rate : 2 466 Kbps
Width : 528 pixels
Height : 400 pixels
Display aspect ratio : 4:3
Frame rate : 25.000 fps
Color space : YUV
Chroma subsampling : 4:2:0
Bit depth : 8 bits
Scan type : Progressive
Compression mode : Lossy
Bits/(Pixel*Frame) : 0.467
Stream size : 1.29 GiB (91%)
Writing library : XviD 1.2.0.dev47 (UTC 2006-11-01)
Audio
ID : 1
Format : MPEG Audio
Format version : Version 1
Format profile : Layer 2
Codec ID : 50
Duration : 1h 15mn
Bit rate mode : Constant
Bit rate : 224 Kbps
Channel count : 2 channels
Sampling rate : 48.0 KHz
Compression mode : Lossy
Stream size : 120 MiB (8%)
Alignment : Aligned on interleaves
Interleave, duration : 80 ms (2.00 video frames)
Interleave, preload duration : 504 ms
Language : English
!!!!НЕ РЕКОМЕНДУЕТСЯ СМОТРЕТЬ ОСОБЕННО ВПЕЧАТЛИТЕЛЬНЫМ!!!

_________________
Вне форума [Профиль] [ЛС]
Похожие темы
Форум Тема Автор Торрент Отв. Посл. сообщение
./templates/default/images/folder_dl.gif Фильмы 2001-2010 Бабло (Константин Буслов) [2011 г., комедия, криминал, BDRip1080p ] [лицензия] Delia
2 | 0

0 | 946

25

2011-11-24 13:26
Delia Последнее
./templates/default/images/folder_dl.gif Мультимедийные приложения Учебник-Конструктор по сборке систем Windows [Rus] [Учебник + soft] Omen
1 | 0

0 | 80

32

2014-08-14 20:53
Omen Последнее
./templates/default/images/folder_dl.gif Строительство, Дизайн и Ремонт Игорь Антонов | Конструкции из гипсокартона: арки, потолки, перегородки (2013) [FB2] Omen
1 | 0

0 | 877

12

2014-12-16 09:09
Omen Последнее
./templates/default/images/folder_dl.gif Отечественные мультфильмы Три богатыря: Ход конем (Константин Феоктистов) [2014, мультфильм, комедия, приключения, HDRip | Лицензия] Omen
1 | 0

0 | 630

32

2015-02-24 09:00
Omen Последнее
./templates/default/images/folder_dl.gif Фантастика, фэнтези, ужасы, мистика Константин Муравьев | Технарь (2015) [FB2] moralis
1 | 0

0 | 720

18

2016-04-24 21:35
moralis Последнее
./templates/default/images/folder_dl.gif Фантастика, фэнтези, ужасы, мистика Где то там - Муравьёв Константин Николаевич - Где то там [2014-2016, FB2, RUS] Omen
1 | 0

0 | 542

7

2016-05-11 21:00
Omen Последнее
./templates/default/images/folder_dl.gif Строительство, Дизайн и Ремонт А.А. Савельев | Конструкции крыш. Стропильные системы (2009) [PDF] }{@R0N
1 | 0

0 | 711

10

2016-08-12 19:48
}{@R0N Последнее
./templates/default/images/folder_dl.gif Философия, Религия, Эзотерика, Публицистика Брусенцов Н.П. — Искусство достоверного рассуждения. Неформальная реконструкция аристотелевой силлогистики и булевой математики [1998, PDF, RUS] Omen
1 | 0

0 | 3997

0

2016-12-15 01:00
Omen Последнее
./templates/default/images/folder_dl.gif Техническая и научно-популярная литература Джон Бейктал | Конструируем роботов на Arduino. Первые шаги (2016) [PDF] }{@R0N
1 | 0

0 | 2066

15

2017-05-01 22:24
}{@R0N Последнее
./templates/default/images/folder_dl.gif Компьютерная литература Дмитрий Зиновьев | Основы конструирования в Solid Edge. Синхронная среда. (2018) [PDF] }{@R0N
1 | 0

0 | 1739

4

2017-12-05 22:22
}{@R0N Последнее
Показать сообщения:    
Ответить на тему

Текущее время: Сегодня 15:20

Часовой пояс: GMT + 3



Вы не можете начинать темы
Вы не можете отвечать на сообщения
Вы не можете редактировать свои сообщения
Вы не можете удалять свои сообщения
Вы не можете голосовать в опросах
Вы не можете прикреплять файлы к сообщениям
Вы не можете скачивать файлы