Сегодня идет свободное скачивание без начисления Download

Конструктор красного цвета / Konstruktor krasnogo tsveta (Андрей И, Армен Петросян) [1993 г., документальный, фантастика, триллер, VHSRip]

Ответить на тему
 
Автор
Сообщение

Region_13 ®

Пол:

Стаж: 3 года 1 месяц

Сообщений: 923

Откуда: Мальдивы

Торрент-статистика

Пост 15-Янв-2016 16:38

[Цитировать]

Конструктор красного цвета / Konstruktor krasnogo tsveta
Год выпуска: 1993
Страна: Россия
Жанр: документальный, фантастика, триллер
Продолжительность: 70 мин. / 01:10
Перевод: Не требуется
Режиссер: Андрей И, Армен Петросян
Продюссер: Роман Криштул
Сценарий: Андрей И
Бюджет: неизвестно
Премьера в мире: 11 сентября 1993
+18


В ролях: Анна Семкина
Описание: Палец с ноги — на руку. Трупная кровь — в живой организм — Конструктор. В какой-то момент сборки он действительно будет красного цвета…

Качество: VHSRip
Формат: AVI
Видео кодек: XviD
Аудио кодек: MP3
Видео: 528x400 (4:3), 25 fps, XviD MPEG-4 ~2466 kbps avg, 0.46 bit/pixel
Аудио: 48 kHz, MPEG Layer 3, 2 ch, ~224.00 kbps avg

Скриншоты

         

Mediainfo

General
Complete name : D:\Релизы\Engineering Red.avi
Format : AVI
Format/Info : Audio Video Interleave
File size : 1.42 GiB
Duration : 1h 15mn
Overall bit rate : 2 697 Kbps
Writing application : VirtualDubMod 1.5.4.1 (build 2178/release)
Writing library : VirtualDubMod build 2178/release
Video
ID : 0
Format : MPEG-4 Visual
Format profile : Advanced [email protected]
Format settings, BVOP : 1
Format settings, QPel : No
Format settings, GMC : No warppoints
Format settings, Matrix : Custom
Codec ID : XVID
Codec ID/Hint : XviD
Duration : 1h 15mn
Bit rate : 2 466 Kbps
Width : 528 pixels
Height : 400 pixels
Display aspect ratio : 4:3
Frame rate : 25.000 fps
Color space : YUV
Chroma subsampling : 4:2:0
Bit depth : 8 bits
Scan type : Progressive
Compression mode : Lossy
Bits/(Pixel*Frame) : 0.467
Stream size : 1.29 GiB (91%)
Writing library : XviD 1.2.0.dev47 (UTC 2006-11-01)
Audio
ID : 1
Format : MPEG Audio
Format version : Version 1
Format profile : Layer 2
Codec ID : 50
Duration : 1h 15mn
Bit rate mode : Constant
Bit rate : 224 Kbps
Channel count : 2 channels
Sampling rate : 48.0 KHz
Compression mode : Lossy
Stream size : 120 MiB (8%)
Alignment : Aligned on interleaves
Interleave, duration : 80 ms (2.00 video frames)
Interleave, preload duration : 504 ms
Language : English
!!!!НЕ РЕКОМЕНДУЕТСЯ СМОТРЕТЬ ОСОБЕННО ВПЕЧАТЛИТЕЛЬНЫМ!!!

_________________
Вне форума [Профиль] [ЛС]
Похожие темы
Форум Тема Автор Торрент Отв. Посл. сообщение
./templates/default/images/folder_dl.gif Подшивки журналов и газет Подшивка журналов | Радиоконструктор (2016) [PDF,DJVU] [Обновляемая] Omen
1 | 0

0 | 1861

1

2012-05-11 14:22
Omen Последнее
./templates/default/images/folder_dl.gif Компьютерная литература А. С. Журавлев - AutoCAD для конструкторов [2010] [DJVU] Omen
1 | 0

0 | 547

4

2012-06-01 20:06
Omen Последнее
./templates/default/images/folder_dl.gif Фантастика, фэнтези, ужасы, мистика Калбазов Константин - Рубикон. Дважды в одну реку [Ларионов Сергей (babay7) (ЛИ), (ЛИ), 2013 г., 128 kbps, MP3] Omen
1 | 0

0 | 381

7

2013-06-08 18:03
Omen Последнее
./templates/default/images/folder_dl.gif Разное Денис Борисов | Тело на реконструкции (Том 1-й: Закладывание основ) [2013] [PDF] UndegraundMen
1 | 0

2 | 12250

505

2013-10-31 20:37
Ковалев Виктор Последнее
./templates/default/images/folder_dl.gif Разное Марина Пуха | Как сконструировать свою жизнь такую, какую хочется [2011] [PDF] UndegraundMen
1 | 0

0 | 1043

7

2013-08-19 05:00
UndegraundMen Последнее
./templates/default/images/folder_dl.gif Фантастика, фэнтези, ужасы, мистика Константин Муравьев | Технарь (2015) [FB2] moralis
1 | 0

0 | 306

12

2016-04-24 21:35
moralis Последнее
./templates/default/images/folder_dl.gif Обучающее видео Константин Фёст | Неизвестный Excel (2016) [unpacked] Omen
1 | 0

0 | 150

12

2016-10-27 01:00
Omen Последнее
./templates/default/images/folder_dl.gif Бизнес, Право, Экономика, Финансы Андрей Меркулов, Константин Савохин | Хакеры с барсетками. Пошаговая инструкция по созданию очереди клиентов из интернета (2012) [PDF] [email protected]
1 | 0

0 | 417

7

2016-11-25 18:55
[email protected] Последнее
./templates/default/images/folder_dl.gif Фантастика, фэнтези, ужасы, мистика Константин Храбрых | Печать Змеи (2016) [FB2] [email protected]
1 | 0

0 | 2145

4

2017-01-23 22:33
[email protected] Последнее
Показать сообщения:    
Ответить на тему

Текущее время: Сегодня 00:57

Часовой пояс: GMT + 3



Вы не можете начинать темы
Вы не можете отвечать на сообщения
Вы не можете редактировать свои сообщения
Вы не можете удалять свои сообщения
Вы не можете голосовать в опросах
Вы не можете прикреплять файлы к сообщениям
Вы не можете скачивать файлы