Сегодня идет свободное скачивание без начисления Download

Конструктор красного цвета / Konstruktor krasnogo tsveta (Андрей И, Армен Петросян) [1993 г., документальный, фантастика, триллер, VHSRip]

Ответить на тему
 
Автор
Сообщение

Region_13 ®

Пол:

Стаж: 3 года 6 месяцев

Сообщений: 922

Откуда: Мальдивы

Торрент-статистика

Пост 15-Янв-2016 16:38

[Цитировать]

Конструктор красного цвета / Konstruktor krasnogo tsveta
Год выпуска: 1993
Страна: Россия
Жанр: документальный, фантастика, триллер
Продолжительность: 70 мин. / 01:10
Перевод: Не требуется
Режиссер: Андрей И, Армен Петросян
Продюссер: Роман Криштул
Сценарий: Андрей И
Бюджет: неизвестно
Премьера в мире: 11 сентября 1993
+18


В ролях: Анна Семкина
Описание: Палец с ноги — на руку. Трупная кровь — в живой организм — Конструктор. В какой-то момент сборки он действительно будет красного цвета…

Качество: VHSRip
Формат: AVI
Видео кодек: XviD
Аудио кодек: MP3
Видео: 528x400 (4:3), 25 fps, XviD MPEG-4 ~2466 kbps avg, 0.46 bit/pixel
Аудио: 48 kHz, MPEG Layer 3, 2 ch, ~224.00 kbps avg

Скриншоты

         

Mediainfo

General
Complete name : D:\Релизы\Engineering Red.avi
Format : AVI
Format/Info : Audio Video Interleave
File size : 1.42 GiB
Duration : 1h 15mn
Overall bit rate : 2 697 Kbps
Writing application : VirtualDubMod 1.5.4.1 (build 2178/release)
Writing library : VirtualDubMod build 2178/release
Video
ID : 0
Format : MPEG-4 Visual
Format profile : Advanced [email protected]
Format settings, BVOP : 1
Format settings, QPel : No
Format settings, GMC : No warppoints
Format settings, Matrix : Custom
Codec ID : XVID
Codec ID/Hint : XviD
Duration : 1h 15mn
Bit rate : 2 466 Kbps
Width : 528 pixels
Height : 400 pixels
Display aspect ratio : 4:3
Frame rate : 25.000 fps
Color space : YUV
Chroma subsampling : 4:2:0
Bit depth : 8 bits
Scan type : Progressive
Compression mode : Lossy
Bits/(Pixel*Frame) : 0.467
Stream size : 1.29 GiB (91%)
Writing library : XviD 1.2.0.dev47 (UTC 2006-11-01)
Audio
ID : 1
Format : MPEG Audio
Format version : Version 1
Format profile : Layer 2
Codec ID : 50
Duration : 1h 15mn
Bit rate mode : Constant
Bit rate : 224 Kbps
Channel count : 2 channels
Sampling rate : 48.0 KHz
Compression mode : Lossy
Stream size : 120 MiB (8%)
Alignment : Aligned on interleaves
Interleave, duration : 80 ms (2.00 video frames)
Interleave, preload duration : 504 ms
Language : English
!!!!НЕ РЕКОМЕНДУЕТСЯ СМОТРЕТЬ ОСОБЕННО ВПЕЧАТЛИТЕЛЬНЫМ!!!

_________________
Вне форума [Профиль] [ЛС]
Похожие темы
Форум Тема Автор Торрент Отв. Посл. сообщение
./templates/default/images/folder_dl.gif Подшивки журналов и газет Подшивка журналов | Радиоконструктор (2017) [PDF,DJVU] [Обновляемая] Omen
1 | 0

0 | 2478

2

2012-05-11 14:22
Omen Последнее
./templates/default/images/folder_dl.gif Компьютерная литература А. С. Журавлев - AutoCAD для конструкторов [2010] [DJVU] Omen
1 | 0

0 | 719

5

2012-06-01 20:06
Omen Последнее
./templates/default/images/folder_dl.gif Мультимедийные приложения Учебник-Конструктор по сборке систем Windows [Rus] [Учебник + soft] Omen
1 | 0

0 | 77

29

2014-08-14 20:53
Omen Последнее
./templates/default/images/folder_dl.gif Фантастика, фэнтези, ужасы, мистика Константин Калбазов | Рубикон. Дважды в одну реку (2013) [FB2] Omen
1 | 0

0 | 262

7

2016-03-09 18:43
Omen Последнее
./templates/default/images/folder_dl.gif Фантастика, фэнтези, ужасы, мистика Константин Дадов | Путь Огненного Лиса [Трилогия] (2016) [FB2] moralis
1 | 0

0 | 736

4

2016-04-24 22:05
moralis Последнее
./templates/default/images/folder_dl.gif Философия, Религия, Эзотерика, Публицистика Брусенцов Н.П. — Искусство достоверного рассуждения. Неформальная реконструкция аристотелевой силлогистики и булевой математики [1998, PDF, RUS] Omen
1 | 0

0 | 3651

0

2016-12-15 01:00
Omen Последнее
./templates/default/images/folder_dl.gif Техническая и научно-популярная литература Джон Бейктал | Конструируем роботов на Arduino. Первые шаги (2016) [PDF] [email protected]
1 | 0

0 | 1769

10

2017-05-01 22:24
[email protected] Последнее
./templates/default/images/folder_dl.gif Фантастика, фэнтези, ужасы, мистика Константин Муравьёв | Враг за спиной (2017) [FB2] [email protected]
1 | 0

0 | 934

1

2017-07-13 21:14
[email protected] Последнее
./templates/default/images/folder_dl.gif Фантастика, фэнтези, ужасы, мистика Константин Нормаер | Механическая пустошь (2017) [FB2] [email protected]
1 | 0

0 | 19057

3

2017-07-16 22:27
[email protected] Последнее
Показать сообщения:    
Ответить на тему

Текущее время: Сегодня 03:46

Часовой пояс: GMT + 3



Вы не можете начинать темы
Вы не можете отвечать на сообщения
Вы не можете редактировать свои сообщения
Вы не можете удалять свои сообщения
Вы не можете голосовать в опросах
Вы не можете прикреплять файлы к сообщениям
Вы не можете скачивать файлы