Сегодня идет свободное скачивание без начисления Download

Американская история Х / American History X (Тони Кэй) [1998 г., драма, криминал, BDRip]

Ответить на тему
 
Автор
Сообщение

Region_13 ®

Пол:

Стаж: 2 года 10 месяцев

Сообщений: 923

Откуда: Мальдивы

Торрент-статистика

Пост 15-Янв-2016 16:58

[Цитировать]

Американская история Х / American History X«Преступление и наказание» Год выпуска: 1998
Страна: США
Жанр: драма, криминал
Продолжительность: 119 мин. / 01:59
Режиссер: Тони Кэй
Продюссер: Джон Мориссей, Билл Карраро, Майкл Де Лука
Сценарий: Дэвид МакКенна
Бюджет: $20 000 000
Премьера в мире: 30 октября 1998
рейтинг R лицам до 17 лет обязательно присутствие взрослого


В ролях: Эдвард Нортон, Файруза Балк, Итан Сапли, Стэйси Кич, Эдвард Ферлонг, Беверли Д'Анджело, Эллиотт Гулд, Гай Торри
Описание: Лидер одной из местных группировок скинхедов, Дерек, всецело контролирует свой район, но ровно до тех пор, покуда открыто не переступает закон. Его младший брат - Дэнни, вдохновлённый поступками и авторитетом Дерека, решает идти по его же стопам. Фильм остро затрагивает проблему расизма и неравноправия людей. На обсуждение выставляются многие вопросы, ответов на которые не найдено до сих пор. Картина заставляет задуматься о поступках действующих лиц, чей жизненный путь запятнан нацистскими идеями и мыслями.
Качество: BDRip
Формат: AVI
Видео кодек: XviD
Аудио кодек: AC3
Видео: 720x400 (1.80:1), 23.976 fps, XviD, ~1553 kbps avg, 0.23 bit/pixel
Аудио: 48 kHz, AC3 Dolby Digital, 2/0 (L,R) ch, ~192.00 kbps avg

Скриншоты

   

Mediainfo

General
Complete name : D:\Релизы\American_History_X.avi
Format : AVI
Format/Info : Audio Video Interleave
File size : 1.46 GiB
Duration : 1h 58mn
Overall bit rate : 1 754 Kbps
Writing application : VirtualDubMod 1.5.10.3 | www.virtualdub-fr.org || (build 2550/release)
Writing library : VirtualDubMod build 2550/release
Video
ID : 0
Format : MPEG-4 Visual
Format profile : Advanced [email protected]
Format settings, BVOP : 2
Format settings, QPel : No
Format settings, GMC : No warppoints
Format settings, Matrix : Custom
Codec ID : XVID
Codec ID/Hint : XviD
Duration : 1h 58mn
Bit rate : 1 553 Kbps
Width : 720 pixels
Height : 400 pixels
Display aspect ratio : 16:9
Frame rate : 23.976 fps
Color space : YUV
Chroma subsampling : 4:2:0
Bit depth : 8 bits
Scan type : Progressive
Compression mode : Lossy
Bits/(Pixel*Frame) : 0.225
Stream size : 1.29 GiB (89%)
Writing library : XviD 64
Audio
ID : 1
Format : AC-3
Format/Info : Audio Coding 3
Mode extension : CM (complete main)
Format settings, Endianness : Big
Codec ID : 2000
Duration : 1h 58mn
Bit rate mode : Constant
Bit rate : 192 Kbps
Channel count : 2 channels
Channel positions : Front: L R
Sampling rate : 48.0 KHz
Bit depth : 16 bits
Compression mode : Lossy
Stream size : 163 MiB (11%)
Alignment : Split accross interleaves
Interleave, duration : 42 ms (1.00 video frame)
Interleave, preload duration : 500 ms

Интересные факты:

Музыкальная группа «Anti-Heroes» подала в суд на студию «New Line Cinema» за то, что у одного из персонажей фильма была татуировка с именем данной группы. Группа не желала никаких ассоциаций с фашистами.
Студия попросила Эдварда Нортона перемонтировать картину, тем самым, предоставив больше экранного времени его персонажу. Узнав об этом, режиссер фильма, Тони Кэй, попытался добиться исключения его имени из титров, но нарушил одно из правил «Гильдии режиссеров Америки», гласящее: «режиссеры, которые используют псевдонимы, не должны разглашать информации о том, почему они решили убрать свое имя из титров». Однако Кэй рассказал о своих намерениях во время промоушна фильма. Тони подал в суд на «Гильдию режиссеров» и студию «New Line Cinema» за нарушение первой поправки конституции, потребовав в качестве возмещения морального ущерба $200 миллионов.
Кэмерон (Стэйси Кич) характеризует Боба Свини (Эйвери Брукс), как Дядю Тома. Брукс сыграл Дядю Тома в «Хижине дяди Тома» (1987).
Во время баскетбольного матча Сет одет в футболку с номером 88. Это шифр скинхэдов для «НН» или «Heil Hitler»: «Н» - восьмая буква латинского алфавита. 88 также является ссылкой на 88 принципов, сформулированных нео-нацистским лидером Дэвидом Лэйном.
Специально для данной роли Эдвард Нортон набрал 30 фунтов (примерно 13,6 килограммов) мышечной массы.
Слово «fuck» произносится по ходу действия фильма 205 раз.
Забегаловка, в которой завтракают Дэнни и Дерек, перед тем как Дэнни пойдет в школу, - это та же самая забегаловка, что и в фильме «Большой Лебовски» (1998).
Цитата, которая звучит в конце эссе Дэнни, - последние слова Авраама Линкольна во время его инаугурационной речи в 1861 году.

_________________
Вне форума [Профиль] [ЛС]
Похожие темы
Форум Тема Автор Торрент Отв. Посл. сообщение
./templates/default/images/folder_dl.gif ЖЗЛ. Биографии. Мемуары. Историография. Дмитрий Таболкин | 100 знаменитых американцев [2008] [FB2] sashau
1 | 0

0 | 758

2

2013-04-06 17:38
sashau Последнее
./templates/default/images/folder_dl.gif Фантастика, фэнтези, ужасы, мистика Злотников Роман, Гринчевский Игорь - Американец [Валерий Захарьев, 2016 г., 128 kbps, MP3] Omen
1 | 0

0 | 188

7

2016-05-14 15:03
Omen Последнее
Показать сообщения:    
Ответить на тему

Текущее время: Сегодня 02:55

Часовой пояс: GMT + 3



Вы не можете начинать темы
Вы не можете отвечать на сообщения
Вы не можете редактировать свои сообщения
Вы не можете удалять свои сообщения
Вы не можете голосовать в опросах
Вы не можете прикреплять файлы к сообщениям
Вы не можете скачивать файлы