Сегодня идет свободное скачивание без начисления Download

Семь / Se7en (Дэвид Финчер) [1995 г., триллер, драма, криминал, детектив, BDRip]

Ответить на тему
 
Автор
Сообщение

Region_13 ®

Пол:

Стаж: 2 года 10 месяцев

Сообщений: 923

Откуда: Мальдивы

Торрент-статистика

Пост 15-Янв-2016 19:23

[Цитировать]

Семь / Se7en«Он возомнил себя Богом и начал карать...» Год выпуска: 1995
Страна: США
Жанр: триллер, драма, криминал, детектив
Продолжительность: 127 мин. / 02:07
Перевод: Профессиональный (многоголосый закадровый)
Режиссер: Дэвид Финчер
Продюссер: Филлис Карлайл, Арнольд Копельсон, Стивен Браун
Сценарий: Эндрю Кевин Уокер
Бюджет: $33 000 000
Премьера в мире: 22 сентября 1995
рейтинг R лицам до 17 лет обязательно присутствие взрослого


В ролях: Брэд Питт, Морган Фриман, Гвинет Пэлтроу, Кевин Спейси, Р. Ли Эрми, Эндрю Кевин Уокер, Дэниэл Зацапа, Джон Кассини, Боб Макк, Питер Кромби
Описание: Детектив Уильям Сомерсет — ветеран уголовного сыска, мечтающий уйти на пенсию и уехать подальше от города и грешных обитателей. За 7 дней до пенсии на Сомерсета сваливаются две неприятности: молодой напарник Миллс и особо изощренное убийство. Острый ум опытного сыщика сразу определяет, что за этим преступлением, скорее всего, последуют другие. Новости подтверждают его догадку. Поняв, что убийца наказывает свои жертвы за совершенные ими смертные грехи, детектив встает перед выбором: вернуться к работе, либо уйти и передать дело своему менее опытному напарнику?

Качество:BDRip
Формат: AVI
Видео кодек: XviD
Аудио кодек: AC3
Видео: 720x304 (2.37:1), 23.976 fps, XviD build 50 ~2005 kbps avg, 0.382 bit/pixel
Аудио: 48 kHz, AC3 Dolby Digital, 3/2 (L,C,R,l,r) + LFE ch, ~448.00kbit/s

Скриншоты

                 

Mediainfo

General
Complete name : D:\Релизы\Sem.1995.Remastered.RUS.BDRip.XviD.AC3.avi
Format : AVI
Format/Info : Audio Video Interleave
Format profile : OpenDML
File size : 2.18 GiB
Duration : 2h 6mn
Overall bit rate : 2 465 Kbps
Movie name : Seven / Se7en (1995)
Director : HRIME
Writing application : VirtualDubMod 1.5.10.2 (build 2542/release)
Copyright : HQ-ViDEO
Comment : 11.09.2015
Video
ID : 0
Format : MPEG-4 Visual
Format profile : Advanced [email protected]
Format settings, BVOP : 1
Format settings, QPel : No
Format settings, GMC : No warppoints
Format settings, Matrix : Custom
Codec ID : XVID
Codec ID/Hint : XviD
Duration : 2h 6mn
Bit rate : 2 005 Kbps
Width : 720 pixels
Height : 304 pixels
Display aspect ratio : 2.35:1
Frame rate : 23.976 fps
Color space : YUV
Chroma subsampling : 4:2:0
Bit depth : 8 bits
Scan type : Progressive
Compression mode : Lossy
Bits/(Pixel*Frame) : 0.382
Stream size : 1.78 GiB (81%)
Writing library : XviD 73
Audio
ID : 1
Format : AC-3
Format/Info : Audio Coding 3
Mode extension : CM (complete main)
Format settings, Endianness : Big
Codec ID : 2000
Duration : 2h 6mn
Bit rate mode : Constant
Bit rate : 448 Kbps
Channel count : 6 channels
Channel positions : Front: L C R, Side: L R, LFE
Sampling rate : 48.0 KHz
Bit depth : 16 bits
Compression mode : Lossy
Stream size : 406 MiB (18%)
Alignment : Split accross interleaves
Interleave, duration : 42 ms (1.00 video frame)
Interleave, preload duration : 500 ms

_________________
Вне форума [Профиль] [ЛС]
Похожие темы
Форум Тема Автор Торрент Отв. Посл. сообщение
./templates/default/images/folder_dl.gif Зарубежное кино Семь / Se7en (Дэвид Финчер) [1995, триллер, криминал, детектив, BDRip 1080p] MVO O.S.A.
1 | 0

0 | 372

18

2014-01-03 12:39
O.S.A. Последнее
Показать сообщения:    
Ответить на тему

Текущее время: Сегодня 17:39

Часовой пояс: GMT + 3



Вы не можете начинать темы
Вы не можете отвечать на сообщения
Вы не можете редактировать свои сообщения
Вы не можете удалять свои сообщения
Вы не можете голосовать в опросах
Вы не можете прикреплять файлы к сообщениям
Вы не можете скачивать файлы