Сегодня идет свободное скачивание без начисления Download

Послание в бутылке / Message in a Bottle (Луис Мандоки / Luis Mandoki) [1999, драма, мелодрама, BDRip 1080p]

Ответить на тему
 
Автор
Сообщение

Delia ®

Пол:

Стаж: 6 лет 7 месяцев

Сообщений: 1930

Торрент-статистика

Пост 20-Июл-2012 10:34

[Цитировать]

Послание в бутылке / Message in a Bottle«A story of love lost and found.»--
Год выпуска: 1999
Страна: США
Жанр: драма, мелодрама, ...
Продолжительность: 02:10:51
Перевод: Профессиональный (дублированный)
Субтитры: Russian (2v) , english (srt)
Режиссер: Луис Мандоки
Сценарий: Джералд Ди Пего, Николас Спаркс
Продюсер: Кевин Костнер, Денис Ди Нови, Джим Уилсон, ...
Оператор: Калеб Дешанель
Композитор: Габриэль Яред
Художник: Джеффри Бикрофт, Стив Сэклад, Марк Зюльзке, ...
Монтаж: Стивен Вайсберг- В ролях: Кевин Костнер (Kevin Costner), Робин Райт (Robin Wright), Пол Ньюман (Paul Newman), Джон Сэвидж (John Savage), Иллиана Даглас (Illeana Douglas), Робби Колтрейн (Robbie Coltrane), Джесси Джеймс (Jesse James), Бетел Лесли (Bethel Leslie), Том Элдридж (Tom Aldredge), Вивека Дэвис (Viveka Davis), Рафаэль Сбардж (Raphael Sbarge), Ричард Хэмилтон (Richard Hamilton), Розмари Мерфи (Rosemary Murphy), Стивен Экхольд (Steven Eckholdt), Susan Brightbill, Патриция Белчер (Patricia Belcher), Стив Меллор (Steve Mellor), Лэнс Гилберт (Lance Gilbert), Дженнифер Ламб (Jennifer Lamb), Хайден Панеттьери (Hayden Panettiere)
Описание: Пытаясь забыться после смерти жены, Гаррет Блейк строит яхту, мечтая об одиночном плавании. А в это время редактор отдела писем влиятельной газеты «Чикаго Трибьюн» Тереза Осборн собирается в командировку по письму, которое нашла на берегу океана в бутылке. И автор этого необычного послания — не кто иной, как Гаррет Блейк...-Рейтинг MPAA: -- --Качество: BDRip
Формат: MKV
Видео кодек: H.264 (AVC)
Аудио кодеk: AC3
Видео: 1920x816 (2.35:1), 24.000 fps, AVC, 4 398 Kbps
Аудио: AC3, 384 Kbps, 48.0 KHz, 6 ch

МедиаИнфо

Код:
General
Complete name                    : Message.in.a.Bottle.1999.BDRip-F.HD.mkv
Format                           : Matroska
File size                        : 4.37 GiB
Duration                         : 2h 10mn
Overall bit rate                 : 4 783 Kbps
Encoded date                     : UTC 2012-07-20 06:36:49
Writing application              : mkvmerge v5.7.0 ('The Whirlwind') built on Jul  8 2012 20:08:51
Writing library                  : libebml v1.2.3 + libmatroska v1.3.0
Video
ID                               : 1
Format                           : AVC
Format/Info                      : Advanced Video Codec
Format profile                   : [email protected]
Format settings, CABAC           : Yes
Format settings, ReFrames        : 5 frames
Muxing mode                      : Container [email protected]
Codec ID                         : V_MPEG4/ISO/AVC
Duration                         : 2h 10mn
Bit rate                         : 4 398 Kbps
Width                            : 1 920 pixels
Height                           : 816 pixels
Display aspect ratio             : 2.35:1
Frame rate                       : 24.000 fps
Color space                      : YUV
Chroma subsampling               : 4:2:0
Bit depth                        : 8 bits
Scan type                        : Progressive
Bits/(Pixel*Frame)               : 0.117
Stream size                      : 3.93 GiB (90%)
Writing library                  : x264 core 125 r2200 999b753
Encoding settings                : cabac=1 / ref=5 / deblock=1:-1:-1 / analyse=0x3:0x113 / me=umh / subme=10 / psy=1 / psy_rd=0.90:0.00 / mixed_ref=1 / me_range=48 / chroma_me=1 / trellis=2 / 8x8dct=1 / cqm=0 / deadzone=21,11 / fast_pskip=0 / chroma_qp_offset=-2 / threads=6 / lookahead_threads=1 / sliced_threads=0 / nr=0 / decimate=1 / interlaced=0 / bluray_compat=0 / constrained_intra=0 / bframes=6 / b_pyramid=2 / b_adapt=2 / b_bias=0 / direct=3 / weightb=1 / open_gop=0 / weightp=2 / keyint=240 / keyint_min=24 / scenecut=40 / intra_refresh=0 / rc=2pass / mbtree=0 / bitrate=4398 / ratetol=1.0 / qcomp=0.70 / qpmin=10 / qpmax=51 / qpstep=4 / cplxblur=20.0 / qblur=0.5 / ip_ratio=1.40 / pb_ratio=1.30 / aq=2:0.80
Audio
ID                               : 2
Format                           : AC-3
Format/Info                      : Audio Coding 3
Mode extension                   : CM (complete main)
Codec ID                         : A_AC3
Duration                         : 2h 10mn
Bit rate mode                    : Constant
Bit rate                         : 384 Kbps
Channel(s)                       : 6 channels
Channel positions                : Front: L C R, Side: L R, LFE
Sampling rate                    : 48.0 KHz
Bit depth                        : 16 bits
Stream size                      : 359 MiB (8%)
Language                         : Russian
Text #1
ID                               : 3
Format                           : UTF-8
Codec ID                         : S_TEXT/UTF8
Codec ID/Info                    : UTF-8 Plain Text
Language                         : Russian
Text #2
ID                               : 4
Format                           : UTF-8
Codec ID                         : S_TEXT/UTF8
Codec ID/Info                    : UTF-8 Plain Text
Language                         : Russian
Text #3
ID                               : 5
Format                           : UTF-8
Codec ID                         : S_TEXT/UTF8
Codec ID/Info                    : UTF-8 Plain Text


Скриншоты

     
     

_________________
Человек – это канат, натянутый между животным и сверхчеловеком, – канат над пропастью.
В человеке ценно то, что он мост, а не цель. Фридрих Ницше
Вне форума [Профиль] [ЛС]
Показать сообщения:    
Ответить на тему

Текущее время: Сегодня 13:16

Часовой пояс: GMT + 3



Вы не можете начинать темы
Вы не можете отвечать на сообщения
Вы не можете редактировать свои сообщения
Вы не можете удалять свои сообщения
Вы не можете голосовать в опросах
Вы не можете прикреплять файлы к сообщениям
Вы не можете скачивать файлы