Сегодня идет свободное скачивание без начисления Download

Джеки Браун / Jackie Brown (Квентин Тарантино) [1997 г., триллер, драма, криминал, BDRip 720p]

Ответить на тему
 
Автор
Сообщение

Delia ®

Пол:

Стаж: 6 лет 7 месяцев

Сообщений: 1930

Торрент-статистика

Пост 27-Фев-2011 00:47

[Цитировать]

Джеки БраунJackie Brown Год выпуска: 1997
Страна: США
Жанр: триллер, драма, криминал
Продолжительность: 02 ч. 34 м. 19 с.
Перевод: Профессиональный (многоголосый, закадровый)
Режиссер: Квентин Тарантино
Продюссер: Лоуренс Бендер, Ричард Н. Гладштейн, Пол Хеллерман
Сценарий: Элмор Леонард, Квентин Тарантино
Бюджет: $12 000 000
Премьера в мире: 25 декабря 1997
R - Лицам до 17 лет обязательно присутствие взрослого
7.60 (88 486)

В ролях: Пэм Гриер, Сэмюэл Л. Джексон, Роберт Форстер, Бриджит Фонда, Майкл Китон, Роберт Де Ниро, Майкл Боуэн, Крис Такер, Лиза Гэй Хэмилтон, Том ’Тайни’ Листер мл.
Описание: Фильм поставлен по роману Элмора Леонарда. Героиня по имени Джекки Браун работает стюардессой и подрабатывает контрабандой наличных денег в страну для торговца оружием. Все складывается отлично до того момента, пока ее не арестовывают федеральные агенты.На свободе она может остаться, только «заложив» торговца. Рисковая девушка принимает решение и «пол-лимона зеленых» присвоить, и от торговца оружием избавиться. А вот останется ли она сама в живых?...
Качество: BDRip
Формат: MKV
Видео кодек: H.264
Аудио кодек: AC3
Видео: English, 2499 Кбит/сек, 1280*688 (1,860), в 23,976 кадр/сек, AVC ([email protected])
Аудио: Russian, 320 Кбит/сек, 48,0 КГц, 16 бит, 6 канала(ов), AC-3

Media Info:

Уникальный идентификатор : 197455151871118528381529630289452932651 (0x948C7A9D8796EED69649416FC8F51E2B)
Полное имя : E:\торрент\Djeki.Braun.1997.x264.BDRip 720p.mkv
Формат : Matroska
Размер файла : 3,04 Гбайт
Продолжительность : 2 ч. 34 м.
Общий поток : 2824 Кбит/сек
Дата кодирования : UTC 2011-02-26 18:20:00
Программа кодирования : mkvmerge v4.5.0 ('Speed of Light') built on Feb 1 2011 02:10:32
Библиотека кодирования : libebml v1.2.0 + libmatroska v1.1.0
Видео
Идентификатор : 1
Формат : AVC
Формат/Информация : Advanced Video Codec
Профиль формата : [email protected]
Параметр CABAC формата : Да
Параметр ReFrames формата : 14 кадры
Идентификатор кодека : V_MPEG4/ISO/AVC
Продолжительность : 2 ч. 34 м.
Битрейт : 2499 Кбит/сек
Ширина : 1280 пикс.
Высота : 688 пикс.
Соотношение сторон : 1,860
Частота кадров : 23,976 кадр/сек
Цветовое пространство : YUV
Подвыборка цветности : 4:2:0
Битовая глубина : 8 бит
Тип развёртки : Прогрессивная
Бит/(Пиксели*Кадры) : 0.118
Размер потока : 2,64 Гбайт (87%)
Библиотека кодирования : x264 core 114 r1913 5fd3dce
Настройки программы : cabac=1 / ref=14 / deblock=1:-3:-3 / analyse=0x3:0x133 / me=umh / subme=7 / psy=1 / psy_rd=1.00:0.15 / mixed_ref=1 / me_range=64 / chroma_me=1 / trellis=2 / 8x8dct=1 / cqm=0 / deadzone=21,11 / fast_pskip=1 / chroma_qp_offset=-3 / threads=6 / sliced_threads=0 / nr=0 / decimate=1 / interlaced=0 / constrained_intra=0 / bframes=6 / b_pyramid=2 / b_adapt=1 / b_bias=0 / direct=1 / weightb=1 / open_gop=0 / weightp=2 / keyint=250 / keyint_min=23 / scenecut=40 / intra_refresh=0 / rc_lookahead=40 / rc=2pass / mbtree=1 / bitrate=2499 / ratetol=1.0 / qcomp=0.80 / qpmin=5 / qpmax=51 / qpstep=4 / cplxblur=20.0 / qblur=0.5 / ip_ratio=1.40 / aq=1:1.00
Язык : English
Аудио
Идентификатор : 2
Формат : AC-3
Формат/Информация : Audio Coding 3
Расширение режима : CM (complete main)
Идентификатор кодека : A_AC3
Продолжительность : 2 ч. 34 м.
Вид битрейта : Постоянный
Битрейт : 320 Кбит/сек
Канал(ы) : 6 канала(ов)
Расположение каналов : Front: L C R, Side: L R, LFE
Частота : 48,0 КГц
Битовая глубина : 16 бит
Метод сжатия : С потерями
Размер потока : 353 Мбайт (11%)
Язык : Russian
Текст
Идентификатор : 3
Формат : VobSub
Режим смешивания : zlib
Идентификатор кодека : S_VOBSUB
Идентификатор кодека/Информация : The same subtitle format used on DVDs
Язык : Russian

_________________
Человек – это канат, натянутый между животным и сверхчеловеком, – канат над пропастью.
В человеке ценно то, что он мост, а не цель. Фридрих Ницше


Последний раз редактировалось: Delia (2011-08-25 22:44), всего редактировалось 1 раз
Вне форума [Профиль] [ЛС]
Показать сообщения:    
Ответить на тему

Текущее время: Сегодня 22:52

Часовой пояс: GMT + 3



Вы не можете начинать темы
Вы не можете отвечать на сообщения
Вы не можете редактировать свои сообщения
Вы не можете удалять свои сообщения
Вы не можете голосовать в опросах
Вы не можете прикреплять файлы к сообщениям
Вы не можете скачивать файлы