Сегодня идет свободное скачивание без начисления Download

Эммануэль - Emmanuelle (Жюст Жэкин /Just Jaeckin) [1974 г., Мелодрама, драма, эротика, BDRip]

Ответить на тему
 
Автор
Сообщение

Omen ®

Стаж: 4 года 1 месяц

Сообщений: 194382

Торрент-статистика

Пост 26-Июл-2012 11:07

[Цитировать]

Эммануэль
Emmanuelle
-
Русское название: Эммануэль
Оригинальное название: Emmanuelle
Год выпуска: 1974
Страна: Франция
Студия: Trinacra Films, Orphée Productions
Жанр: Драма, Эротика
Описание фильма:
Первый фильм о жрице любви Эммануэль. Сюжет служит канвой для описания сексуальных похождений героини в Юго-Восточной Азии.
Муж Эммануэль, работающий в посольстве, поощряет в ней стремление к раскрепощенности в сексе, благо весь дипломатический корпус, особенно женщины, изнывают от скуки. За её воспитание берется уже пожилой специалист. Эммануэль делает большие успехи в искусстве любви.
Режиссер: Жюст Жэкин /Just Jaeckin
Актеры: Ален Кюни, Сильвия Кристель, Марика Грин, Даниэль Сарки, Жанна Коллетен, Кристин Буассон, Саманта, Габриэль Бриан,Грегори
Продолжительность: 01:34:13
Перевод: Профессиональный (многоголосый, закадровый)
Язык субтитров: Отсутствуют- -Видеокодек: Xvid
Битрейт видео: ~ 1938 kb/s
Размер кадра: 720x432 (1.67:1)
Качество видео: ВDRip
Аудиокодек: АС3 (2 ch)
Битрейт аудио: 256 kbps
-

MediaInfo

Код:
Общее
Полное имя                               : E:\Загрузка\Emmanuel.1974.RUS.BDRip.avi
Формат                                   : AVI
Формат/Информация                        : Audio Video Interleave
Размер файла                             : 1,45 Гбайт
Продолжительность                        : 1 ч. 34 м.
Общий поток                              : 2204 Кбит/сек
Название фильма                          : Эммануэль / Emmanuelle (1974) BDRip
Программа кодирования                    : VirtualDubMod 1.5.10.3 | www.virtualdub-fr.org || (build 2550/release)
Формат оригинала/Имя                     : Movie
Примечание                               : 18.10.2011
Видео
Идентификатор                            : 0
Формат                                   : MPEG-4 Visual
Профиль формата                          : Advanced [email protected]
Параметр BVOP формата                    : 1
Параметр QPel формата                    : Нет
Параметр GMC формата                     : Без точки перехода
Параметр матрицы формата                 : Выборочная
Идентификатор кодека                     : XVID
Идентификатор кодека/Подсказка           : XviD
Продолжительность                        : 1 ч. 34 м.
Битрейт                                  : 1938 Кбит/сек
Ширина                                   : 720 пикселей
Высота                                   : 432 пикселя
Соотношение сторон                       : 1,667
Частота кадров                           : 24,000 кадра/сек
Цветовое пространство                    : YUV
Субдискретизация насыщенности            : 4:2:0
Битовая глубина                          : 8 бит
Тип развёртки                            : Прогрессивная
Метод сжатия                             : С потерями
Бит/(Пиксели*Кадры)                      : 0.260
Размер потока                            : 1,28 Гбайт (88%)
Библиотека кодирования                   : XviD 64
Аудио
Идентификатор                            : 1
Формат                                   : AC-3
Формат/Информация                        : Audio Coding 3
Расширение режима                        : CM (complete main)
Параметр Endianness формата              : Big
Идентификатор кодека                     : 2000
Продолжительность                        : 1 ч. 34 м.
Вид битрейта                             : Постоянный
Битрейт                                  : 256 Кбит/сек
Каналы                                   : 2 канала
Расположение каналов                     : Front: L R
Частота                                  : 48,0 КГц
Битовая глубина                          : 16 бит
Метод сжатия                             : С потерями
Размер потока                            : 173 Мбайт (12%)
Выравнивание                             : Разделение по промежуткам
Продолжительность промежутка             : 42  мс. (1,00 видеокадр)
Время предзагрузки промежутка            : 500  мс.
-Cкриншоты из фильма:
         
Вне форума [Профиль] [ЛС]
Показать сообщения:    
Ответить на тему

Текущее время: Сегодня 17:37

Часовой пояс: GMT + 3



Вы не можете начинать темы
Вы не можете отвечать на сообщения
Вы не можете редактировать свои сообщения
Вы не можете удалять свои сообщения
Вы не можете голосовать в опросах
Вы не можете прикреплять файлы к сообщениям
Вы не можете скачивать файлы