Сегодня идет свободное скачивание без начисления Download

Форрест Гамп / Forrest Gump (1994) [H.264] BDRip

Ответить на тему
 
Автор
Сообщение

Delia ®

Пол:

Стаж: 6 лет 7 месяцев

Сообщений: 1930

Торрент-статистика

Пост 27-Фев-2011 23:15

[Цитировать]

Форрест Гамп / Forrest Gump (1994) BDRip- Русское название: Форрест Гамп
Оригинальное название: Forrest Gump
Год выпуска: 1994
Жанр: Комедия, Мелодрама, Драма
Описание фильма:
Захватывающий, глубокий, очень добрый и трогательный фильм рассказывает от лица главного героя Форреста Гампа (Том Хэнкс), слабоумного безобидного человека с благородным и открытым сердцем, историю его необыкновенной жизни. Фантастическим образом превращается он в известного футболиста, героя войны, преуспевающего бизнесмена. Он становится миллиардером, но остается таким же бесхитростным, глупым и добрым. Форреста ждет постоянный успех во всем, а он любит девушку, с которой дружил в детстве (Робин Райт),но взаимность приходит слишком поздно...Поневоле задумываешься, может ли помочь нам быть счастливыми тот разум которым мы обладаем и ценим, и не является ли его отсутствие возможностью следовать своей истинной природе, проявиться более глубоким, по настоящему человеческим качествам...
Режиссер: Роберт Земекис /Robert Zemeckis
Актеры: Том Хэнкс /Tom Hanks/, Робин Райт Пенн /Robin Wright Penn/, Гэри Синайз /Gary Sinise/, Салли Филд /Sally Field/, Микелти Уильямсон /Mykelti Williamson/, Ребекка Уильямс /Rebecca Williams
Обладатель 6 премий «Оскар» 1994г. за Лучший фильм, Лучшая мужская роль (Том Хэнкс), Лучший режиссер, Лучший адаптированный сценарий, Лучший монтаж, Лучшие визуальные эффекты.
Продолжительность: 02:22:09
Перевод: Многоголосый закадровый
Язык: Русский / En
Вид субтитров: Вшитые отключаемые
Субтитры 1: Русский Позитив-мультимедиа
Субтитры 2: Русский Тайкун
Субтитры 3: Русский коментарий Тома Хэнкса
Субтитры 4: Русский коментарий продюсера Венди Файнермана
Субтитры 5: English

Видеокодек: H.264
Битрейт видео: ~23,976 fps; 2365 kbps; 0,219 bpp
Размер кадра: 1024x432 (2.35:1)
Качество видео: BDRip
Аудиокодек: ACC, AC 3
Битрейт аудио 1: AAC LC; 221 kbps (q = 0,33); VBR; 6 ch; Original English
Битрейт аудио 2: AAC LC; 221 kbps (q = 0,33); VBR; 6 ch - Русский MVO (Позитив-мультимедиа)
Битрейт аудио 3: AC 3; 224 Kbps ; 2 channels: Front: L R - Русский MVO от СТС
Битрейт аудио 4: AC 3; 384 Kbps ; 6 channels: Front: L C R, Side: L R, LF - Русский MVO от НТВ

Mediainfo

Complete name : /home/prot/Forrest.Gump.1994.BDRip.AVC_CTC_NTV.mkv
Format : Matroska
File size : 3.39 GiB
Duration : 2h 22mn
Overall bit rate : 3 419 Kbps
Movie name : Forrest Gump (1994) - Release for HDCLUB
Encoded date : UTC 2011-02-24 15:00:32
Writing application : mkvmerge v3.0.0 ('Hang up your Hang-Ups') built on Dec 29 2009 00:24:14
Writing library : libebml v0.7.7 + libmatroska v0.8.1
Cover : Yes / Yes / Yes
Video
ID : 1
Format : AVC
Format/Info : Advanced Video Codec
Format profile : [url=mailto:[email protected]][email protected][/url]
Format settings, CABAC : Yes
Format settings, ReFrames : 10 frames
Codec ID : V_MPEG4/ISO/AVC
Duration : 2h 22mn
Nominal bit rate : 2 365 Kbps
Width : 1 024 pixels
Height : 432 pixels
Display aspect ratio : 2.35:1
Frame rate : 23.976 fps
Color space : YUV
Chroma subsampling : 4:2:0
Bit depth : 8 bits
Scan type : Progressive
Bits/(Pixel*Frame) : 0.223
Writing library : x264 core 75 r1259M dd026f2
Encoding settings : cabac=1 / ref=10 / deblock=1:-3:-2 / analyse=0x3:0x133 / me=umh / subme=10 / psy=1 / psy_rd=1.1:0.0 / mixed_ref=1 / me_range=32 / chroma_me=1 / trellis=2 / 8x8dct=1 / cqm=0 / deadzone=21,11 / chroma_qp_offset=-2 / threads=12 / nr=0 / decimate=0 / mbaff=0 / bframes=12 / b_pyramid=1 / b_adapt=2 / b_bias=0 / direct=3 / wpredb=1 / keyint=250 / keyint_min=25 / scenecut=40 / rc=2pass / mbtree=0 / bitrate=2365 / ratetol=1.0 / qcomp=0.60 / qpmin=10 / qpmax=51 / qpstep=4 / cplxblur=20.0 / qblur=0.5 / ip_ratio=1.40 / pb_ratio=1.30 / aq=1:1.00 / pulldown=0 / nal_hrd=0
Language : English
Audio #1
ID : 2
Format : AAC
Format/Info : Advanced Audio Codec
Format profile : LC
Codec ID : A_AAC
Duration : 2h 22mn
Channel(s) : 6 channels
Channel positions : Front: L C R, Side: L R, LFE
Sampling rate : 48.0 KHz
Compression mode : Lossy
Title : Original
Language : English
Audio #2
ID : 3
Format : AAC
Format/Info : Advanced Audio Codec
Format profile : LC
Codec ID : A_AAC
Duration : 2h 22mn
Channel(s) : 6 channels
Channel positions : Front: L C R, Side: L R, LFE
Sampling rate : 48.0 KHz
Compression mode : Lossy
Title : MVO (Позитив-мультимедиа)
Language : Russian
Audio #3
ID : 9
Format : AC-3
Format/Info : Audio Coding 3
Mode extension : CM (complete main)
Codec ID : A_AC3
Duration : 2h 22mn
Bit rate mode : Constant
Bit rate : 224 Kbps
Channel(s) : 2 channels
Channel positions : Front: L R
Sampling rate : 48.0 KHz
Bit depth : 16 bits
Compression mode : Lossy
Stream size : 228 MiB (7%)
Title : СТС
Language : Russian
Audio #4
ID : 10
Format : AC-3
Format/Info : Audio Coding 3
Mode extension : CM (complete main)
Codec ID : A_AC3
Duration : 2h 22mn
Bit rate mode : Constant
Bit rate : 384 Kbps
Channel(s) : 6 channels
Channel positions : Front: L C R, Side: L R, LFE
Sampling rate : 48.0 KHz
Bit depth : 16 bits
Compression mode : Lossy
Stream size : 390 MiB (11%)
Title : НТВ
Language : Russian
Text #1
ID : 4
Format : UTF-8
Codec ID : S_TEXT/UTF8
Codec ID/Info : UTF-8 Plain Text
Title : Позитив-мультимеди
Language : Russian
Text #2
ID : 5
Format : UTF-8
Codec ID : S_TEXT/UTF8
Codec ID/Info : UTF-8 Plain Text
Title : Тайкун
Language : Russian
Text #3
ID : 6
Format : UTF-8
Codec ID : S_TEXT/UTF8
Codec ID/Info : UTF-8 Plain Text
Title : Комментарии Тома Хенкса
Language : Russian
Text #4
ID : 7
Format : UTF-8
Codec ID : S_TEXT/UTF8
Codec ID/Info : UTF-8 Plain Text
Title : Комментарии продюсера Венди Файнермана
Language : Russian
Text #5
ID : 8
Format : ASS
Codec ID : S_TEXT/ASS
Codec ID/Info : Advanced Sub Station Alpha
Compression mode : Lossless
Language : English
Menu
00:00:00.000 : :1. I'm Forest...Forest Gump
00:06:43.569 : :2. Mama
00:12:24.577 : :3. Like Peas and Carrots
00:19:56.945 : :4. Run Forest Run!
00:31:13.705 : :5. Private Gump
00:40:40.187 : :6. Lieutenant Dan
00:44:18.113 : :7. My Best Good Friend
00:56:34.474 : :8. Wounded In the Buttocks
01:03:32.266 : :9. You're My Girl
01:13:34.076 : :10. National Celebrity
01:17:02.826 : :11. Happy New Year
01:23:52.277 : :12. Shrimp Boat Captain
01:34:59.944 : :13. Bubba Gump
01:38:55.596 : :14. Mama's Trip To Heaven
01:43:52.893 : :15. Jenny Comes Home
01:51:28.306 : :16. A Little Run
01:58:54.710 : :17. Forrest Meets Forrest
02:04:48.564 : :18. Beloved Mother, Wife and Friend
02:15:25.200 : :19. Credits

Скриншоты:

        

_________________
Человек – это канат, натянутый между животным и сверхчеловеком, – канат над пропастью.
В человеке ценно то, что он мост, а не цель. Фридрих Ницше


Последний раз редактировалось: Delia (2011-02-28 00:36), всего редактировалось 2 раз(а)
Вне форума [Профиль] [ЛС]
Показать сообщения:    
Ответить на тему

Текущее время: Сегодня 20:25

Часовой пояс: GMT + 3



Вы не можете начинать темы
Вы не можете отвечать на сообщения
Вы не можете редактировать свои сообщения
Вы не можете удалять свои сообщения
Вы не можете голосовать в опросах
Вы не можете прикреплять файлы к сообщениям
Вы не можете скачивать файлы