Сегодня идет свободное скачивание без начисления Download

(OST) Цикл историй / Monogatari Series (Utamonogatari Limited Edition (DVD)) - 2016 г., FLAC (tracks+.cue), lossless

Ответить на тему
 
Автор
Сообщение

Omen ®

Стаж: 5 лет

Сообщений: 190530

Торрент-статистика

Пост 08-Мар-2016 00:03

[Цитировать]

Цикл историй / Monogatari Series
Название альбома: Utamonogatari Limited Edition (DVD)
Год выпуска: 2016 г.
Страна: Япония
Аудио кодек: FLAC (*.flac)
Тип рипа: tracks+.cue
Битрейт аудио: lossless
Продолжительность: 1:42:16
Наличие сканов в содержимом раздачи: да
Треклист:
Диск 1:
1. STAPLE STABLE / SENJYOGAHARA HITAGI(SAITO CHIWA)
2. KAERIMICHI / HACHIKUJI MAYOI(KATO EMIRI)
3. AMBIVALENT WORLD / KANBARU SURUGA(SAWASHIRO MIYUKI)
4. RENAI SA-KYURE-SHONN / SENGOKU NADEKO(HANAZAWA KANA)
5. SUGAR SWEET NIGHTMARE / HANEKAWA TSUBASA(HORIE YUI)
6. KIMINO SHIRANAI MONOGATARI / supercell
7. FUTAKOTOME / SENJYOGAHARA HITAGI(SAITO CHIWA)
8. MARSHMALLOW JUSTICE / ARARAGI KAREN(KITAMURA ERI)
9. PLATINUM DISCO / ARARAGI TSUKIHI(IGUCHI YUKA)
10. NAISHO NO HANASHI / ClariS
11. PERFECT SLUMBERS / HANEKAWA TSUBASA(HORIE YUI)
12. KIERU DAYDREAM / KAWANO MARINA
Диск 2:
13. CHOCOLATE INSOMNIA / HANEKAWA TSUBASA(HORIE YUI)
14. HAPPY BITE / HACHIKUJI MAYOI(KATO EMIRI)
15. AI WO UTAE / HARUNA LUNA
16. THE LAST DAY OF MY ADOLESCENCE / KANBARU SURUGA(SAWASHIRO MIYUKI)
17. SHIRUSHI / KAWANO MARINA
18. MOUSOU EXPRESS / SENGOKU NADEKO(HANAZAWA KANA)
19. WHITE LIES
20. SONOKOEWO OBOETERU / KAWANO MARINA
21. FAST LOVE / SENJYOGAHARA HITAGI(SAITO CHIWA)
22. KOGARASHI SENTIMENT SENJOGAHARA HITAGI KAIKI DEISYU VER / SENJYOGAHARA HITAGI(SAITO CHIWA)
23. SNOWDROP / HARUNA LUNA and KAWANO MARINA

Логи создания рипа

Диск 1

Лог EAC

Exact Audio Copy V1.1 from 23. June 2015
EAC extraction logfile from 4. March 2016, 18:57
- / Utamonogatari (Disc 1)
Used drive : Optiarc DVD RW AD-5260S Adapter: 1 ID: 0
Read mode : SecureUtilize accurate stream : YesDefeat audio cache : YesMake use of C2 pointers : No
Read offset correction : 48Overread into Lead-In and Lead-Out : NoFill up missing offset samples with silence : YesDelete leading and trailing silent blocks : NoNull samples used in CRC calculations : YesUsed interface : Native Win32 interface for Win NT & 2000Gap handling : Appended to previous track
Used output format : User Defined EncoderSelected bitrate : 1024 kBit/sQuality : HighAdd ID3 tag : YesCommand line compressor : C:\Program Files (x86)\Exact Audio Copy\FLAC\FLAC.EXEAdditional command line options : -6 -V -T "ARTIST=%artist%" -T "TITLE=%title%" -T "ALBUM=%albumtitle%" -T "DATE=%year%" -T "TRACKNUMBER=%tracknr%" -T "GENRE=%genre%" -T "COMMENT=%comment%" -T "BAND=%albuminterpret%" -T "ALBUMARTIST=%albuminterpret%" -T "COMPOSER=%composer%" %haslyrics%--tag-from-file=LYRICS="%lyricsfile%"%haslyrics% -T "DISCNUMBER=%cdnumber%" -T "TOTALDISCS=%totalcds%" -T "TOTALTRACKS=%numtracks%" %hascover%--picture="%coverfile%"%hascover% %source% -o %dest%
TOC of the extracted CD
Track | Start | Length | Start sector | End sector --------------------------------------------------------- 1 | 0:00.00 | 4:35.20 | 0 | 20644 2 | 4:35.20 | 4:06.62 | 20645 | 39156 3 | 8:42.07 | 4:17.23 | 39157 | 58454 4 | 12:59.30 | 4:15.03 | 58455 | 77582 5 | 17:14.33 | 4:31.11 | 77583 | 97918 6 | 21:45.44 | 5:44.04 | 97919 | 123722 7 | 27:29.48 | 4:25.62 | 123723 | 143659 8 | 31:55.35 | 4:15.35 | 143660 | 162819 9 | 36:10.70 | 4:16.43 | 162820 | 182062 10 | 40:27.38 | 4:21.31 | 182063 | 201668 11 | 44:48.69 | 4:27.52 | 201669 | 221745 12 | 49:16.46 | 4:37.58 | 221746 | 242578
Track 1
Filename E:\Utamonogatari\Disc 1\01. SENJYOGAHARA HITAGI(SAITO CHIWA) - STAPLE STABLE.wav
Pre-gap length 0:00:02.00
Peak level 98.8 % Extraction speed 2.3 X Track quality 100.0 % Test CRC 3A0DA5A0 Copy CRC 3A0DA5A0 Accurately ripped (confidence 31) [637AD3A3] (AR v2) Copy OK
Track 2
Filename E:\Utamonogatari\Disc 1\02. HACHIKUJI MAYOI(KATO EMIRI) - KAERIMICHI.wav
Pre-gap length 0:00:02.12
Peak level 99.8 % Extraction speed 2.6 X Track quality 100.0 % Test CRC E01E2F99 Copy CRC E01E2F99 Accurately ripped (confidence 31) [A205F16F] (AR v2) Copy OK
Track 3
Filename E:\Utamonogatari\Disc 1\03. KANBARU SURUGA(SAWASHIRO MIYUKI) - AMBIVALENT WORLD.wav
Pre-gap length 0:00:03.13
Peak level 99.9 % Extraction speed 2.5 X Track quality 99.9 % Test CRC D2DA2E9D Copy CRC D2DA2E9D Accurately ripped (confidence 31) [30098C5B] (AR v2) Copy OK
Track 4
Filename E:\Utamonogatari\Disc 1\04. SENGOKU NADEKO(HANAZAWA KANA) - RENAI SA-KYURE-SHONN.wav
Pre-gap length 0:00:02.00
Peak level 99.9 % Extraction speed 3.0 X Track quality 100.0 % Test CRC 1D26A42A Copy CRC 1D26A42A Accurately ripped (confidence 31) [CAF23481] (AR v2) Copy OK
Track 5
Filename E:\Utamonogatari\Disc 1\05. HANEKAWA TSUBASA(HORIE YUI) - SUGAR SWEET NIGHTMARE.wav
Pre-gap length 0:00:03.12
Peak level 99.9 % Extraction speed 3.3 X Track quality 100.0 % Test CRC 3924E29D Copy CRC 3924E29D Accurately ripped (confidence 31) [D1AB1EDD] (AR v2) Copy OK
Track 6
Filename E:\Utamonogatari\Disc 1\06. supercell - KIMINO SHIRANAI MONOGATARI.wav
Pre-gap length 0:00:03.49
Peak level 99.9 % Extraction speed 3.6 X Track quality 100.0 % Test CRC CBA7E52D Copy CRC CBA7E52D Accurately ripped (confidence 31) [EA42B5ED] (AR v2) Copy OK
Track 7
Filename E:\Utamonogatari\Disc 1\07. SENJYOGAHARA HITAGI(SAITO CHIWA) - FUTAKOTOME.wav
Pre-gap length 0:00:03.49
Peak level 99.9 % Extraction speed 3.7 X Track quality 100.0 % Test CRC A8A922E3 Copy CRC A8A922E3 Accurately ripped (confidence 31) [EF002CA0] (AR v2) Copy OK
Track 8
Filename E:\Utamonogatari\Disc 1\08. ARARAGI KAREN(KITAMURA ERI) - MARSHMALLOW JUSTICE.wav
Pre-gap length 0:00:02.49
Peak level 99.9 % Extraction speed 3.9 X Track quality 100.0 % Test CRC 4C19F176 Copy CRC 4C19F176 Accurately ripped (confidence 31) [A8833FB0] (AR v2) Copy OK
Track 9
Filename E:\Utamonogatari\Disc 1\09. ARARAGI TSUKIHI(IGUCHI YUKA) - PLATINUM DISCO.wav
Pre-gap length 0:00:02.12
Peak level 99.9 % Extraction speed 4.0 X Track quality 100.0 % Test CRC AB4764CD Copy CRC AB4764CD Accurately ripped (confidence 31) [9AC96121] (AR v2) Copy OK
Track 10
Filename E:\Utamonogatari\Disc 1\10. ClariS - NAISHO NO HANASHI.wav
Pre-gap length 0:00:02.49
Peak level 99.9 % Extraction speed 4.2 X Track quality 100.0 % Test CRC AECDB7A6 Copy CRC AECDB7A6 Accurately ripped (confidence 31) [D176BF33] (AR v2) Copy OK
Track 11
Filename E:\Utamonogatari\Disc 1\11. HANEKAWA TSUBASA(HORIE YUI) - PERFECT SLUMBERS.wav
Pre-gap length 0:00:02.49
Peak level 99.9 % Extraction speed 4.4 X Track quality 100.0 % Test CRC 7F396D41 Copy CRC 7F396D41 Accurately ripped (confidence 31) [BE87FB30] (AR v2) Copy OK
Track 12
Filename E:\Utamonogatari\Disc 1\12. KAWANO MARINA - KIERU DAYDREAM.wav
Pre-gap length 0:00:02.12
Peak level 99.9 % Extraction speed 4.5 X Track quality 100.0 % Test CRC CE993D85 Copy CRC CE993D85 Accurately ripped (confidence 29) [BE447B3F] (AR v2) Copy OK
All tracks accurately ripped
No errors occurred
End of status report
---- CUETools DB Plugin V2.1.6
[CTDB TOCID: TvQEVQzyq1moLgeVhvWLTGbU6yU-] foundSubmit result: already submittedTrack | CTDB Status 1 | (423/426) Accurately ripped 2 | (422/426) Accurately ripped 3 | (423/426) Accurately ripped 4 | (423/426) Accurately ripped 5 | (423/426) Accurately ripped 6 | (422/426) Accurately ripped 7 | (421/426) Accurately ripped 8 | (421/426) Accurately ripped 9 | (421/426) Accurately ripped 10 | (421/426) Accurately ripped 11 | (421/426) Accurately ripped 12 | (416/426) Accurately ripped, or (3/426) differs in 12 samples @04:37:38
==== Log checksum A1E3C778B56C363A6A840192A6BFE5A197E061FA0F5E362CF600C833736CFB9B ====

Содержание .cue

REM GENRE JPopREM DATE 2016REM DISCID A70CA20CREM COMMENT "ExactAudioCopy v1.1"PERFORMER ""TITLE "Utamonogatari (Disc 1)"FILE "01. SENJYOGAHARA HITAGI(SAITO CHIWA) - STAPLE STABLE.wav" WAVE TRACK 01 AUDIO TITLE "STAPLE STABLE" PERFORMER "SENJYOGAHARA HITAGI(SAITO CHIWA)" ISRC JPE300901741 INDEX 01 00:00:00 TRACK 02 AUDIO TITLE "KAERIMICHI" PERFORMER "HACHIKUJI MAYOI(KATO EMIRI)" ISRC JPE300901941 INDEX 00 04:33:08FILE "02. HACHIKUJI MAYOI(KATO EMIRI) - KAERIMICHI.wav" WAVE INDEX 01 00:00:00 TRACK 03 AUDIO TITLE "AMBIVALENT WORLD" PERFORMER "KANBARU SURUGA(SAWASHIRO MIYUKI)" ISRC JPE300902041 INDEX 00 04:03:49FILE "03. KANBARU SURUGA(SAWASHIRO MIYUKI) - AMBIVALENT WORLD.wav" WAVE INDEX 01 00:00:00 TRACK 04 AUDIO TITLE "RENAI SA-KYURE-SHONN" PERFORMER "SENGOKU NADEKO(HANAZAWA KANA)" ISRC JPE300902581 INDEX 00 04:15:23FILE "04. SENGOKU NADEKO(HANAZAWA KANA) - RENAI SA-KYURE-SHONN.wav" WAVE INDEX 01 00:00:00 TRACK 05 AUDIO TITLE "SUGAR SWEET NIGHTMARE" PERFORMER "HANEKAWA TSUBASA(HORIE YUI)" ISRC JPE301000041 INDEX 00 04:11:66FILE "05. HANEKAWA TSUBASA(HORIE YUI) - SUGAR SWEET NIGHTMARE.wav" WAVE INDEX 01 00:00:00 TRACK 06 AUDIO TITLE "KIMINO SHIRANAI MONOGATARI" PERFORMER "supercell" ISRC JPSR00901782 INDEX 00 04:27:37FILE "06. supercell - KIMINO SHIRANAI MONOGATARI.wav" WAVE INDEX 01 00:00:00 TRACK 07 AUDIO TITLE "FUTAKOTOME" PERFORMER "SENJYOGAHARA HITAGI(SAITO CHIWA)" ISRC JPE301201201 INDEX 00 05:40:30FILE "07. SENJYOGAHARA HITAGI(SAITO CHIWA) - FUTAKOTOME.wav" WAVE INDEX 01 00:00:00 TRACK 08 AUDIO TITLE "MARSHMALLOW JUSTICE" PERFORMER "ARARAGI KAREN(KITAMURA ERI)" ISRC JPE301200701 INDEX 00 04:23:13FILE "08. ARARAGI KAREN(KITAMURA ERI) - MARSHMALLOW JUSTICE.wav" WAVE INDEX 01 00:00:00 TRACK 09 AUDIO TITLE "PLATINUM DISCO" PERFORMER "ARARAGI TSUKIHI(IGUCHI YUKA)" ISRC JPE301201661 INDEX 00 04:13:23FILE "09. ARARAGI TSUKIHI(IGUCHI YUKA) - PLATINUM DISCO.wav" WAVE INDEX 01 00:00:00 TRACK 10 AUDIO TITLE "NAISHO NO HANASHI" PERFORMER "ClariS" ISRC JPU901101461 INDEX 00 04:13:69FILE "10. ClariS - NAISHO NO HANASHI.wav" WAVE INDEX 01 00:00:00 TRACK 11 AUDIO TITLE "PERFECT SLUMBERS" PERFORMER "HANEKAWA TSUBASA(HORIE YUI)" ISRC JPE301300181 INDEX 00 04:18:57FILE "11. HANEKAWA TSUBASA(HORIE YUI) - PERFECT SLUMBERS.wav" WAVE INDEX 01 00:00:00 TRACK 12 AUDIO TITLE "KIERU DAYDREAM" PERFORMER "KAWANO MARINA" ISRC JPE301300801 INDEX 00 04:25:40FILE "12. KAWANO MARINA - KIERU DAYDREAM.wav" WAVE INDEX 01 00:00:00

Диск 2

Лог EAC

Exact Audio Copy V1.1 from 23. June 2015
EAC extraction logfile from 4. March 2016, 19:39
- / Utamonogatari (Disc 2)
Used drive : Optiarc DVD RW AD-5260S Adapter: 1 ID: 0
Read mode : SecureUtilize accurate stream : YesDefeat audio cache : YesMake use of C2 pointers : No
Read offset correction : 48Overread into Lead-In and Lead-Out : NoFill up missing offset samples with silence : YesDelete leading and trailing silent blocks : NoNull samples used in CRC calculations : YesUsed interface : Native Win32 interface for Win NT & 2000Gap handling : Appended to previous track
Used output format : User Defined EncoderSelected bitrate : 1024 kBit/sQuality : HighAdd ID3 tag : YesCommand line compressor : C:\Program Files (x86)\Exact Audio Copy\FLAC\FLAC.EXEAdditional command line options : -6 -V -T "ARTIST=%artist%" -T "TITLE=%title%" -T "ALBUM=%albumtitle%" -T "DATE=%year%" -T "TRACKNUMBER=%tracknr%" -T "GENRE=%genre%" -T "COMMENT=%comment%" -T "BAND=%albuminterpret%" -T "ALBUMARTIST=%albuminterpret%" -T "COMPOSER=%composer%" %haslyrics%--tag-from-file=LYRICS="%lyricsfile%"%haslyrics% -T "DISCNUMBER=%cdnumber%" -T "TOTALDISCS=%totalcds%" -T "TOTALTRACKS=%numtracks%" %hascover%--picture="%coverfile%"%hascover% %source% -o %dest%
TOC of the extracted CD
Track | Start | Length | Start sector | End sector --------------------------------------------------------- 1 | 0:00.00 | 4:39.21 | 0 | 20945 2 | 4:39.21 | 4:11.57 | 20946 | 39827 3 | 8:51.03 | 4:12.54 | 39828 | 58781 4 | 13:03.57 | 4:23.67 | 58782 | 78573 5 | 17:27.49 | 4:32.71 | 78574 | 99044 6 | 22:00.45 | 4:23.69 | 99045 | 118838 7 | 26:24.39 | 3:24.68 | 118839 | 134206 8 | 29:49.32 | 4:09.42 | 134207 | 152923 9 | 33:58.74 | 4:36.36 | 152924 | 173659 10 | 38:35.35 | 4:37.35 | 173660 | 194469 11 | 43:12.70 | 5:09.07 | 194470 | 217651
Track 1
Filename E:\Utamonogatari\Disc 2\13. HANEKAWA TSUBASA(HORIE YUI) - CHOCOLATE INSOMNIA.wav
Pre-gap length 0:00:02.00
Peak level 99.9 % Extraction speed 2.3 X Track quality 100.0 % Test CRC E0071559 Copy CRC E0071559 Accurately ripped (confidence 22) [E5974C14] (AR v2) Copy OK
Track 2
Filename E:\Utamonogatari\Disc 2\14. HACHIKUJI MAYOI(KATO EMIRI) - HAPPY BITE.wav
Pre-gap length 0:00:03.12
Peak level 99.9 % Extraction speed 2.6 X Track quality 100.0 % Test CRC A28D9F87 Copy CRC A28D9F87 Accurately ripped (confidence 22) [0E06A79F] (AR v2) Copy OK
Track 3
Filename E:\Utamonogatari\Disc 2\15. HARUNA LUNA - AI WO UTAE.wav
Pre-gap length 0:00:02.49
Peak level 97.1 % Extraction speed 2.8 X Track quality 100.0 % Test CRC D8772A3A Copy CRC D8772A3A Accurately ripped (confidence 22) [5CE97607] (AR v2) Copy OK
Track 4
Filename E:\Utamonogatari\Disc 2\16. KANBARU SURUGA(SAWASHIRO MIYUKI) - THE LAST DAY OF MY ADOLESCENCE.wav
Pre-gap length 0:00:04.11
Peak level 99.9 % Extraction speed 3.1 X Track quality 100.0 % Test CRC 2DD21082 Copy CRC 2DD21082 Accurately ripped (confidence 22) [C00B103F] (AR v2) Copy OK
Track 5
Filename E:\Utamonogatari\Disc 2\17. KAWANO MARINA - SHIRUSHI.wav
Pre-gap length 0:00:01.49
Peak level 99.9 % Extraction speed 3.3 X Track quality 100.0 % Test CRC A5107814 Copy CRC A5107814 Accurately ripped (confidence 22) [F2C43140] (AR v2) Copy OK
Track 6
Filename E:\Utamonogatari\Disc 2\18. SENGOKU NADEKO(HANAZAWA KANA) - MOUSOU EXPRESS.wav
Pre-gap length 0:00:02.49
Peak level 99.9 % Extraction speed 3.1 X Track quality 99.9 % Test CRC A5DDC893 Copy CRC A5DDC893 Accurately ripped (confidence 22) [36D4578D] (AR v2) Copy OK
Track 7
Filename E:\Utamonogatari\Disc 2\19. - WHITE LIES.wav
Pre-gap length 0:00:03.12
Peak level 99.9 % Extraction speed 3.5 X Track quality 100.0 % Test CRC 75E6E588 Copy CRC 75E6E588 Accurately ripped (confidence 22) [21F1A86D] (AR v2) Copy OK
Track 8
Filename E:\Utamonogatari\Disc 2\20. KAWANO MARINA - SONOKOEWO OBOETERU.wav
Pre-gap length 0:00:01.50
Peak level 99.9 % Extraction speed 3.7 X Track quality 100.0 % Test CRC AC45702A Copy CRC AC45702A Accurately ripped (confidence 22) [956DECFB] (AR v2) Copy OK
Track 9
Filename E:\Utamonogatari\Disc 2\21. SENJYOGAHARA HITAGI(SAITO CHIWA) - FAST LOVE.wav
Pre-gap length 0:00:03.12
Peak level 99.9 % Extraction speed 4.0 X Track quality 100.0 % Test CRC 871FC6F6 Copy CRC 871FC6F6 Accurately ripped (confidence 22) [CA3AE207] (AR v2) Copy OK
Track 10
Filename E:\Utamonogatari\Disc 2\22. SENJYOGAHARA HITAGI(SAITO CHIWA) - KOGARASHI SENTIMENT SENJOGAHARA HITAGI KAIKI DEISYU VER.wav
Pre-gap length 0:00:01.12
Peak level 99.9 % Extraction speed 4.1 X Track quality 100.0 % Test CRC 8A6FB9BC Copy CRC 8A6FB9BC Accurately ripped (confidence 22) [A32E370B] (AR v2) Copy OK
Track 11
Filename E:\Utamonogatari\Disc 2\23. HARUNA LUNA and KAWANO MARINA - SNOWDROP.wav
Pre-gap length 0:00:02.11
Peak level 99.9 % Extraction speed 4.0 X Track quality 99.9 % Test CRC 0C717468 Copy CRC 0C717468 Accurately ripped (confidence 22) [920B7EC6] (AR v2) Copy OK
All tracks accurately ripped
No errors occurred
End of status report
---- CUETools DB Plugin V2.1.6
[CTDB TOCID: ErBvHuukbgFGNOjAZjiuPHoVXY8-] foundSubmit result: ErBvHuukbgFGNOjAZjiuPHoVXY8- has been confirmedTrack | CTDB Status 1 | (404/406) Accurately ripped 2 | (404/406) Accurately ripped 3 | (404/406) Accurately ripped 4 | (404/406) Accurately ripped 5 | (404/406) Accurately ripped 6 | (404/406) Accurately ripped 7 | (403/406) Accurately ripped 8 | (404/406) Accurately ripped 9 | (404/406) Accurately ripped 10 | (403/406) Accurately ripped 11 | (404/406) Accurately ripped
==== Log checksum 85654048E52ADF08D64B4AF9C37CA69BF5F9123FB8CFC28B04ACF281469E7054 ====

Содержание .cue

REM GENRE JPopREM DATE 2016REM DISCID 8F0B560BREM COMMENT "ExactAudioCopy v1.1"PERFORMER ""TITLE "Utamonogatari (Disc 2)"FILE "13. HANEKAWA TSUBASA(HORIE YUI) - CHOCOLATE INSOMNIA.wav" WAVE TRACK 01 AUDIO TITLE "CHOCOLATE INSOMNIA" PERFORMER "HANEKAWA TSUBASA(HORIE YUI)" ISRC JPE301302699 INDEX 01 00:00:00 TRACK 02 AUDIO TITLE "HAPPY BITE" PERFORMER "HACHIKUJI MAYOI(KATO EMIRI)" ISRC JPE301302929 INDEX 00 04:36:09FILE "14. HACHIKUJI MAYOI(KATO EMIRI) - HAPPY BITE.wav" WAVE INDEX 01 00:00:00 TRACK 03 AUDIO TITLE "AI WO UTAE" PERFORMER "HARUNA LUNA" ISRC JPU901300941 INDEX 00 04:09:08FILE "15. HARUNA LUNA - AI WO UTAE.wav" WAVE INDEX 01 00:00:00 TRACK 04 AUDIO TITLE "THE LAST DAY OF MY ADOLESCENCE" PERFORMER "KANBARU SURUGA(SAWASHIRO MIYUKI)" ISRC JPE301400825 INDEX 00 04:08:43FILE "16. KANBARU SURUGA(SAWASHIRO MIYUKI) - THE LAST DAY OF MY ADOLESCENCE.wav" WAVE INDEX 01 00:00:00 TRACK 05 AUDIO TITLE "SHIRUSHI" PERFORMER "KAWANO MARINA" ISRC JPE301401037 INDEX 00 04:22:18FILE "17. KAWANO MARINA - SHIRUSHI.wav" WAVE INDEX 01 00:00:00 TRACK 06 AUDIO TITLE "MOUSOU EXPRESS" PERFORMER "SENGOKU NADEKO(HANAZAWA KANA)" ISRC JPE301400020 INDEX 00 04:30:22FILE "18. SENGOKU NADEKO(HANAZAWA KANA) - MOUSOU EXPRESS.wav" WAVE INDEX 01 00:00:00 TRACK 07 AUDIO TITLE "WHITE LIES" PERFORMER "" ISRC JPE301400341 INDEX 00 04:20:57FILE "19. - WHITE LIES.wav" WAVE INDEX 01 00:00:00 TRACK 08 AUDIO TITLE "SONOKOEWO OBOETERU" PERFORMER "KAWANO MARINA" ISRC JPE301302684 INDEX 00 03:23:18FILE "20. KAWANO MARINA - SONOKOEWO OBOETERU.wav" WAVE INDEX 01 00:00:00 TRACK 09 AUDIO TITLE "FAST LOVE" PERFORMER "SENJYOGAHARA HITAGI(SAITO CHIWA)" ISRC JPE301400435 INDEX 00 04:06:30FILE "21. SENJYOGAHARA HITAGI(SAITO CHIWA) - FAST LOVE.wav" WAVE INDEX 01 00:00:00 TRACK 10 AUDIO TITLE "KOGARASHI SENTIMENT SENJOGAHARA HITAGI KAIKI DEISYU VER" PERFORMER "SENJYOGAHARA HITAGI(SAITO CHIWA)" ISRC JPE301400628 INDEX 00 04:35:24FILE "22. SENJYOGAHARA HITAGI(SAITO CHIWA) - KOGARASHI SENTIMENT SENJOGAHARA HITAGI KAIKI DEISYU VER.wav" WAVE INDEX 01 00:00:00 TRACK 11 AUDIO TITLE "SNOWDROP" PERFORMER "HARUNA LUNA and KAWANO MARINA" ISRC JPU901301282 INDEX 00 04:35:24FILE "23. HARUNA LUNA and KAWANO MARINA - SNOWDROP.wav" WAVE INDEX 01 00:00:00
Описание: Включает в себя полноразмерные опенинги и эндинги (полные версии) с бумажным описанием. DVD включает в себя опенинги и эндинги без титров за исключением опенинга Onimonogatari.-Описание DVDТип: OP & ED (without credit)
Продолжительность: 23 части по 00:01:32
Озвучка: Japanese
Субтитры: No credit
Качество: DVDRip
Формат: MKV
Видео: x264, 720x480, ~7000кбит/сек, 23.967fps, 10bit
Аудио: японская - FLAC, 2ch, 914кбит/сек, 48000Hz

Список эпизодов

1. STAPLE STABLE
2. KAERIMICHI
3. AMBIVALENT WORLD
4. RENAI SA-KYURE-SHONN
5. SUGAR SWEET NIGHTMARE
6. KIMINO SHIRANAI MONOGATARI
7. FUTAKOTOME
8. MARSHMALLOW JUSTICE
9. PLATINUM DISCO
10. NAISHO NO HANASHI
11. PERFECT SLUMBERS
12. KIERU DAYDREAM
13. CHOCOLATE INSOMNIA
14. HAPPY BITE
15. AI WO UTAE
16. THE LAST DAY OF MY ADOLESCENCE
17. SHIRUSHI
18. MOUSOU EXPRESS
19. WHITE LIES
20. SONOKOEWO OBOETERU
21. FAST LOVE
22. KOGARASHI SENTIMENT
23. SNOWDROP

MediaInfo

General
Unique ID : 185227634266024739815672433952614941713 (0x8B598B73D31E85E289A2976237C28411)
Complete name : E:\Utamonogatari Limited Edition (DVD)\Disc 3\Utamonogatari LE (Disc 3) - CHOCOLATE INSOMNIA [720x480 Hi10 DVD FLAC].mkv
Format : Matroska
Format version : Version 4 / Version 2
File size : 54.9 MiB
Duration : 1mn 32s
Overall bit rate mode : Variable
Overall bit rate : 4 976 Kbps
Encoded date : UTC 2016-03-07 10:47:45
Writing application : mkvmerge v8.9.0 ('Father Daughter') 64bit
Writing library : libebml v1.3.3 + libmatroska v1.4.4
DURATION : 00:01:32.586000000
NUMBER_OF_FRAMES : 1085
NUMBER_OF_BYTES : 11040734
_STATISTICS_WRITING_APP : mkvmerge v8.9.0 ('Father Daughter') 64bit
_STATISTICS_WRITING_DATE_UTC : 2016-03-07 10:47:45
_STATISTICS_TAGS : BPS DURATION NUMBER_OF_FRAMES NUMBER_OF_BYTES
Video
ID : 1
Format : AVC
Format/Info : Advanced Video Codec
Format profile : High [email protected]
Format settings, CABAC : No
Format settings, ReFrames : 4 frames
Codec ID : V_MPEG4/ISO/AVC
Duration : 1mn 32s
Width : 720 pixels
Height : 480 pixels
Display aspect ratio : 1.85:1
Frame rate : 23.976 fps
Standard : NTSC
Color space : YUV
Chroma subsampling : 4:2:0
Bit depth : 10 bits
Scan type : Progressive
Language : Japanese
Default : Yes
Forced : No
Audio
ID : 2
Format : FLAC
Format/Info : Free Lossless Audio Codec
Codec ID : A_FLAC
Duration : 1mn 32s
Bit rate mode : Variable
Channel(s) : 2 channels
Sampling rate : 48.0 KHz
Bit depth : 16 bits
Delay relative to video : 5ms
Writing library : libFLAC 20080709 (UTC 2008-07-09)
Language : Japanese
Default : Yes
Forced : No
Menu
00:00:00.000 : ja:CHOCOLATE INSOMNIA

Скриншоты

Сравнение с оригиналом

Слева направо: оригинальный DVD, x264 Auto2Pass 6000rbit/sec Slower, x264 Auto2Pass 7000kbit/sec UltraFast
Семпл (для оценки качества лучше скачать семпл, чем смотреть онлайн)
Вне форума [Профиль] [ЛС]
Показать сообщения:    
Ответить на тему

Текущее время: Сегодня 13:35

Часовой пояс: GMT + 3



Вы не можете начинать темы
Вы не можете отвечать на сообщения
Вы не можете редактировать свои сообщения
Вы не можете удалять свои сообщения
Вы не можете голосовать в опросах
Вы не можете прикреплять файлы к сообщениям
Вы не можете скачивать файлы