Today is a free download without charge Download

Евгений Карташов | Секреты фотосъемки в обычной квартире + Бонус (2017) CamRip

Reply to topic
 
Author
Message

Omen ®

Longevity: 6 years 10 months

Posts: 181090

Торрент-статистика

Post 09-Mar-2016 06:59

[Quote]

Секреты фотосъемки в обычной квартире + Бонус(2017) - Автор (режиссер): Евгений Карташов
Жанр: Съемка фото
Описание:
Как вы считаете, где были сделаны эти фотографии?
Скорее всего, первое, что вам пришло в голову было — КОНЕЧНО В СТУДИИ!
Но, нет! На самом деле большинство этих фотографий были сделаны в самой обыкновенной квартире с использованием оборудования начального уровня (Canon 650d + Объективы 18-55mm F3.5 - 5.6 и 50mm 1.4 + вспышка с китая). Мы сняли обычную квартиру в Санкт-Петербурге, пригласили моделей и принялись за работу. Сегодня эта работа успешно выполнена, и мы рады представить вам результат нашего труда — курс «Секреты фотосъемки в обычной квартире».
В курсе вас ждет 21 урок, каждый из которых раскрывает какой-то один аспект фотосъемки в обычной квартире.
+Бонус
Обработка фотографий снятых на белом фоне

Список уроков

Урок 1. Бюджетная камера и китовый объектив 18-55 mm. Свет от окна
Урок 2. Съемка с бюджетной камерой и светосильным объективом, используя свет от окна
Урок 3. Съемка с бюджетными камерой и объективом в ясную погоду
Урок 4. Съемка с бюджетными камерой и объективом, используя вспышку и отраженный свет от потолка
Урок 5. Съемка с бюджетными камерой и объективом, используя вспышку и направленный свет
Урок 6. Съемка с бюджетными камерой и светосильным объективом, используя только энергосберегающую лампочку
Урок 7. Как научиться видеть свет
Урок 8. Фото на документы в условиях обычной квартиры
Урок 9. Как сделать большой софтбокс в простой квартире
Урок 10. Как получить фото с идеально черным фоном в обычной квартире
Урок 11. Съемка с двумя источниками света и черным фоном
Урок 12. Съемка портрета на белом фоне
Урок 13. Лампы-вспышки
Урок 14. Используем свет сквозь предметы
Урок 15. Студийные насадки в обычной квартире
Урок 16. Преимущества полнокадровых камер и светосильных объективов в условиях съемки в обычной квартире
Урок 17. Съемка в белье с естественным светом
Урок 18. Съемка в белье. Комбинация из естественного света и внешней вспышки
Урок 19. Съемка на фоне окна
Урок 20. Съемка в подъезде
Урок 21. Съемка на кухне
Продолжительность: 02:10:14
Качество видео: CamRip
Видео: AVC/H.264, 1920x1080, ~1 438 kb/s
Аудио: AAC, 2 ch, 126kb/s

Mediainfo:

General
Complete name : Kurs\1.mp4
Format : MPEG-4
Format profile : Base Media
Codec ID : isom (isom/iso2/avc1/mp41)
File size : 133 MiB
Duration : 11 min 49 s
Overall bit rate : 1 571 kb/s
Writing application : Lavf57.2.100
Video
ID : 1
Format : AVC
Format/Info : Advanced Video Codec
Format profile : [email protected]
Format settings, CABAC : Yes
Format settings, ReFrames : 2 frames
Codec ID : avc1
Codec ID/Info : Advanced Video Coding
Duration : 11 min 49 s
Bit rate : 1 438 kb/s
Width : 1 920 pixels
Height : 1 080 pixels
Display aspect ratio : 16:9
Frame rate mode : Constant
Frame rate : 29.970 (30000/1001) FPS
Color space : YUV
Chroma subsampling : 4:2:0
Bit depth : 8 bits
Scan type : Progressive
Bits/(Pixel*Frame) : 0.023
Stream size : 122 MiB (92%)
Color range : Limited
Color primaries : BT.709
Transfer characteristics : BT.709
Matrix coefficients : BT.709
Audio
ID : 2
Format : AAC
Format/Info : Advanced Audio Codec
Format profile : LC
Codec ID : 40
Duration : 11 min 49 s
Bit rate mode : Constant
Bit rate : 126 kb/s
Channel(s) : 2 channels
Channel positions : Front: L R
Sampling rate : 44.1 kHz
Frame rate : 43.066 FPS (1024 spf)
Compression mode : Lossy
Stream size : 10.6 MiB (8%)
Default : Yes
Alternate group : 1
Скриншоты:
       
Other forum [Profile] [PM]
Similar theme
Forum Topic Author Torrent Replies Last Post
./templates/default/images/folder_dl.gif Обучающее видео Евгений Попов | Настройка и оптимизация Windows 10 (2017) PCRec Omen
1 | 0

0 | 3959

85

2016-03-09 18:12
Omen Latest
Display posts from previous:    
Reply to topic

The time now is: Today 00:46

All times are GMT + 3 Hours



You cannot post new topics in this forum
You cannot reply to topics in this forum
You cannot edit your posts in this forum
You cannot delete your posts in this forum
You cannot vote in polls in this forum
You cannot attach files in this forum
You cannot download files in this forum