Сегодня идет свободное скачивание без начисления Download

Казино / Casino (Мартин Скорсезе / Martin Scorsese) [1995, США, Франция, драма, криминал, биография, HDRip]

Ответить на тему
 
Автор
Сообщение

Omen ®

Стаж: 4 года 1 месяц

Сообщений: 194382

Торрент-статистика

Пост 31-Июл-2012 14:09

[Цитировать]

Казино
Casino

«Риск. Власть. Искушение.»
- Русское название: Казино
Оригинальное название: Casino
Год выпуска: 1995
Производство: США, Франция
Жанр: Драма, криминал, биография
Перевод: Профессиональный (многоголосый, закадровый) |ОРТ|
Субтитры: Отсутствуют-Режиссер:
Актеры: Роберт Де Ниро, Шэрон Стоун, Джо Пеши, Джеймс Вудс, Фрэнк Винсент, Паскуале Кайано, Кевин Поллак, Дон Риклз, Винни Велла, Алан Кинг, Л.К. Джонс, Дик Смотерз, Джозеф Ригано, Джон Блум, Мелисса Пропет, Билл Эллисон, Джин Руффини, Доминик Греко, Эрика Фон Таген, Фрэнки Авалон, Стив Аллен-Описание фильма:Никто не может сравниться с Сэмом Ротстином. Никто не умеет зарабатывать деньги, как он. Никто не умеет работать так самоотверженно и аккуратно, как трудяга Сэм. За свои неоспоримые достоинства Ротстин получил кличку «Ас». И именно поэтому боссы мафии решили отправить Аса заправлять огромным шикарным казино в Лас-Вегасе. А чтобы Сэму никто не мешал работать, мафиози отправили вслед за Асом друга детства Ротстина — Никки Санторо, отпетого бандита и безжалостного головореза.
В Лас-Вегасе Ас как всегда с блеском выполнял свою работу: Казино процветало, водопад денег беспрестанно лился в карманы довольных гангстеров-покровителей. Городские заправилы находились на довольствии у мафии, полицейские и суды были куплены, и, казалось ничто не может омрачить жизнь Аса. Но Господь распорядился иначе. Несокрушимой империи Сэма было суждено утонуть в трагедии и крови.- -Продолжительность: 02:58:20
Качество видео: HDRip-Видеокодек: XviD
Битрейт видео: 972 Кбит/сек
Размер кадра: 672x288
Аудио: Русский, AC3, 2 ch, 192 Кбит/сек
-

MediaInfo

Код:
Общее
Полное имя                               : F:\Раздачи\Раздачи Видео\Казино (1995) HDRip.avi
Формат                                   : AVI
Формат/Информация                        : Audio Video Interleave
Размер файла                             : 1,46 Гбайт
Продолжительность                        : 2 ч. 58 м.
Общий поток                              : 1174 Кбит/сек
Программа кодирования                    : VirtualDubMod 1.5.10.2 (build 2540/release)
Библиотека кодирования                   : VirtualDubMod build 2540/release
Видео
Идентификатор                            : 0
Формат                                   : MPEG-4 Visual
Профиль формата                          : Advanced [email protected]
Параметр BVOP формата                    : 2
Параметр QPel формата                    : Нет
Параметр GMC формата                     : Без точки перехода
Параметр матрицы формата                 : Выборочная
Режим смешивания                         : Сжатый битовый поток
Идентификатор кодека                     : XVID
Идентификатор кодека/Подсказка           : XviD
Продолжительность                        : 2 ч. 58 м.
Битрейт                                  : 972 Кбит/сек
Ширина                                   : 672 пикселя
Высота                                   : 288 пикселей
Соотношение сторон                       : 2,35:1
Частота кадров                           : 23,976 кадра/сек
Цветовое пространство                    : YUV
Субдискретизация насыщенности            : 4:2:0
Битовая глубина                          : 8 бит
Тип развёртки                            : Прогрессивная
Метод сжатия                             : С потерями
Бит/(Пиксели*Кадры)                      : 0.209
Размер потока                            : 1,21 Гбайт (83%)
Библиотека кодирования                   : XviD 1.2.1 (UTC 2008-12-04)
Аудио
Идентификатор                            : 1
Формат                                   : AC-3
Формат/Информация                        : Audio Coding 3
Расширение режима                        : CM (complete main)
Параметр Endianness формата              : Big
Идентификатор кодека                     : 2000
Продолжительность                        : 2 ч. 58 м.
Вид битрейта                             : Постоянный
Битрейт                                  : 192 Кбит/сек
Каналы                                   : 2 канала
Расположение каналов                     : Front: L R
Частота                                  : 48,0 КГц
Битовая глубина                          : 16 бит
Метод сжатия                             : С потерями
Размер потока                            : 245 Мбайт (16%)
Выравнивание                             : Разделение по промежуткам
Продолжительность промежутка             : 42  мс. (1,00 видеокадр)
Время предзагрузки промежутка            : 500  мс.
-Скриншоты:
         
         
Вне форума [Профиль] [ЛС]
Показать сообщения:    
Ответить на тему

Текущее время: Сегодня 17:36

Часовой пояс: GMT + 3



Вы не можете начинать темы
Вы не можете отвечать на сообщения
Вы не можете редактировать свои сообщения
Вы не можете удалять свои сообщения
Вы не можете голосовать в опросах
Вы не можете прикреплять файлы к сообщениям
Вы не можете скачивать файлы