Сегодня идет свободное скачивание без начисления Download

Звёздные войны: Пробуждение силы / Star Wars: The Force Awakens (Джей Джей Абрамс) [2015 г., фантастика, фэнтези, боевик, приключения, BDRip 720p] DUB [Line]

Ответить на тему
 
Автор
Сообщение

Theseus ®

Пол:

Стаж: 6 лет 3 месяца

Сообщений: 1269

Торрент-статистика

Пост 25-Мар-2016 22:56

[Цитировать]

Звёздные войны: Пробуждение силы / Star Wars: The Force Awakens-
Год выпуска: 2015
Страна: США
Жанр: фантастика, фэнтези, боевик, приключения
Продолжительность: 02:18:06
Перевод: Профессиональный (полное дублирование) [центральный канал line]-Режиссер: Джей Джей Абрамс-В ролях: Джон Бойега, Дэйзи Ридли, Оскар Айзек, Адам Драйвер, Донал Глисон, Харрисон Форд, Марк Хэмилл, Кэрри Фишер, Макс фон Сюдов, Энди Серкис-Описание: Через тридцать лет после гибели Дарта Вейдера и Императора галактика по-прежнему в опасности. Государственное образование Новый Порядок во главе с их таинственным верховным лидером Сноуком и его правой рукой Кайло Реном идёт по стопам Империи, пытаясь захватить всю власть. В это нелёгкое время судьба сводит юную девушку Рей и бывшего штурмовика Нового Порядка Финна с героями времён войны с Империей - Ханом Соло, Чубаккой и Королевой Леей. Вместе они должны дать бой Новому Порядку, однако настаёт тот момент, когда становится очевидно, что лишь джедаи могут остановить Сноука и Кайло Рена. И в галактике в живых остаётся только один...--Качество: BDRip 720p
Формат: MKV
Видео кодек: x.264
Аудио кодек: AC3/DTS
Видео: AVC, 1280x534, 23.976 fps, 6292 Kbps
Аудио #1 RUS: AC-3, 48.0 KHz, 6 ch, 640 Kbps
Аудио #2 ENG: DTS, 48.0 KHz, 6 ch, 1509 Kbps
Субтитры: Русские (форсированные на пропуски перевода), английские-

MediaInfo

Общее
Уникальный идентификатор : 207334192576429935593437447729039367520 (0x9BFB1CED6CFEB7A3ABFDCC27F7355D60)
Полное имя : Star.Wars.The Force Awakens.2015.720p.DUB Line 5.1.Eng.mkv
Формат : Matroska
Версия формата : Version 4 / Version 2
Размер файла : 8,14 Гбайт
Продолжительность : 2 ч. 18 м.
Общий поток : 8443 Кбит/сек
Дата кодирования : UTC 2016-03-25 15:02:34
Программа кодирования : mkvmerge v8.2.0 ('World of Adventure') 64bit
Библиотека кодирования : libebml v1.3.1 + libmatroska v1.4.2
Видео
Идентификатор : 1
Формат : AVC
Формат/Информация : Advanced Video Codec
Профиль формата : [email protected]
Параметр CABAC формата : Да
Параметр ReFrames формата : 9 кадров
Идентификатор кодека : V_MPEG4/ISO/AVC
Продолжительность : 2 ч. 18 м.
Битрейт : 6292 Кбит/сек
Ширина : 1280 пикселей
Высота : 534 пикселя
Соотношение сторон : 2,40:1
Режим частоты кадров : Постоянный
Частота кадров : 23,976 (24000/1001) кадра/сек
Цветовое пространство : YUV
Субдискретизация насыщенности : 4:2:0
Битовая глубина : 8 бит
Тип развёртки : Прогрессивная
Бит/(Пиксели*Кадры) : 0.384
Размер потока : 6,07 Гбайт (75%)
Заголовок : Star Wars The Force Awakens
Библиотека кодирования : x264 core 148 r2665kMod a01e339
Настройки программы : cabac=1 / ref=9 / deblock=1:-3:-3 / analyse=0x3:0x113 / me=umh / subme=11 / psy=1 / fade_compensate=0.00 / psy_rd=1.05:0.00 / mixed_ref=1 / me_range=32 / chroma_me=1 / trellis=2 / 8x8dct=1 / cqm=0 / deadzone=21,11 / fast_pskip=0 / chroma_qp_offset=-4 / threads=12 / lookahead_threads=3 / sliced_threads=0 / nr=0 / decimate=1 / interlaced=0 / bluray_compat=0 / constrained_intra=0 / fgo=0 / bframes=10 / b_pyramid=2 / b_adapt=2 / b_bias=0 / direct=3 / weightb=1 / open_gop=0 / weightp=2 / keyint=250 / keyint_min=23 / scenecut=40 / intra_refresh=0 / rc_lookahead=40 / rc=2pass / mbtree=0 / bitrate=6292 / ratetol=1.0 / qcomp=0.60 / qpmin=0 / qpmax=69 / qpstep=4 / cplxblur=20.0 / qblur=0.5 / vbv_maxrate=50000 / vbv_bufsize=65000 / nal_hrd=none / filler=0 / ip_ratio=1.30 / pb_ratio=1.25 / aq=1:0.80
Язык : English
Default : Да
Forced : Нет
Аудио #1
Идентификатор : 3
Формат : AC-3
Формат/Информация : Audio Coding 3
Расширение режима : CM (complete main)
Параметр Endianness формата : Big
Идентификатор кодека : A_AC3
Продолжительность : 2 ч. 18 м.
Вид битрейта : Постоянный
Битрейт : 640 Кбит/сек
Каналы : 6 каналов
Расположение каналов : Front: L C R, Side: L R, LFE
Частота : 48,0 КГц
Частота кадров : 31,250 кадров/сек (1536 spf)
Метод сжатия : С потерями
Размер потока : 632 Мбайт (8%)
Заголовок : DUB RUS Line 5.1
Язык : Russian
Default : Да
Forced : Нет
Аудио #2
Идентификатор : 4
Формат : DTS
Формат/Информация : Digital Theater Systems
Режим : 16
Параметр Endianness формата : Big
Идентификатор кодека : A_DTS
Продолжительность : 2 ч. 18 м.
Вид битрейта : Постоянный
Битрейт : 1509 Кбит/сек
Каналы : 6 каналов
Расположение каналов : Front: L C R, Side: L R, LFE
Частота : 48,0 КГц
Частота кадров : 93,750 кадра/сек (512 spf)
Битовая глубина : 24 бит
Метод сжатия : С потерями
Размер потока : 1,46 Гбайт (18%)
Заголовок : English DTS [email protected] kbps
Язык : English
Default : Нет
Forced : Нет
Текст #1
Идентификатор : 2
Формат : UTF-8
Идентификатор кодека : S_TEXT/UTF8
Идентификатор кодека/Информация : UTF-8 Plain Text
Продолжительность : 1 ч. 47 м.
Битрейт : 2 бит/сек
Count of elements : 29
Размер потока : 1,74 Кбайт (0%)
Заголовок : SUB Rus force
Язык : Russian
Default : Нет
Forced : Нет
Текст #2
Идентификатор : 5
Формат : UTF-8
Идентификатор кодека : S_TEXT/UTF8
Идентификатор кодека/Информация : UTF-8 Plain Text
Продолжительность : 2 ч. 0 м.
Битрейт : 42 бит/сек
Count of elements : 1403
Размер потока : 37,3 Кбайт (0%)
Заголовок : English regular
Язык : English
Default : Нет
Forced : Нет
Текст #3
Идентификатор : 6
Формат : UTF-8
Идентификатор кодека : S_TEXT/UTF8
Идентификатор кодека/Информация : UTF-8 Plain Text
Продолжительность : 2 ч. 6 м.
Битрейт : 52 бит/сек
Count of elements : 1778
Размер потока : 48,5 Кбайт (0%)
Заголовок : English sdh
Язык : English
Default : Нет
Forced : Нет
Меню
00:00:00.000 : en:00:00:00.000
00:00:09.259 : en:00:00:09.259
00:01:43.061 : en:00:01:43.061
00:03:51.857 : en:00:03:51.857
00:06:12.289 : en:00:06:12.289
00:09:33.948 : en:00:09:33.948
00:10:43.560 : en:00:10:43.560
00:12:35.713 : en:00:12:35.713
00:13:39.694 : en:00:13:39.694
00:14:48.221 : en:00:14:48.221
00:16:45.922 : en:00:16:45.922
00:18:04.583 : en:00:18:04.583
00:19:21.535 : en:00:19:21.535
00:21:26.619 : en:00:21:26.619
00:24:03.651 : en:00:24:03.651
00:26:47.022 : en:00:26:47.022
00:29:54.668 : en:00:29:54.668
00:31:49.324 : en:00:31:49.324
00:35:51.775 : en:00:35:51.775
00:36:40.615 : en:00:36:40.615
00:37:45.513 : en:00:37:45.513
00:40:19.250 : en:00:40:19.250
00:43:39.200 : en:00:43:39.200
00:45:29.560 : en:00:45:29.560
00:49:22.918 : en:00:49:22.918
00:51:19.952 : en:00:51:19.952
00:54:13.750 : en:00:54:13.750
00:59:48.794 : en:00:59:48.794
01:04:16.061 : en:01:04:16.061
01:08:37.238 : en:01:08:37.238
01:11:07.221 : en:01:11:07.221
01:15:16.387 : en:01:15:16.387
01:16:49.897 : en:01:16:49.897
01:19:37.523 : en:01:19:37.523
01:20:56.894 : en:01:20:56.894
01:25:36.173 : en:01:25:36.173
01:32:12.569 : en:01:32:12.569
01:35:29.015 : en:01:35:29.015
01:36:34.956 : en:01:36:34.956
01:39:28.629 : en:01:39:28.629
01:41:29.959 : en:01:41:29.959
01:42:57.505 : en:01:42:57.505
01:45:00.002 : en:01:45:00.002
01:50:33.710 : en:01:50:33.710
01:53:39.771 : en:01:53:39.771
01:55:22.165 : en:01:55:22.165
01:58:05.453 : en:01:58:05.453
02:01:05.592 : en:02:01:05.592
02:02:32.679 : en:02:02:32.679
02:07:07.578 : en:02:07:07.578
-          - - -

_________________
Вне форума [Профиль] [ЛС]
Показать сообщения:    
Ответить на тему

Текущее время: Сегодня 05:33

Часовой пояс: GMT + 3



Вы не можете начинать темы
Вы не можете отвечать на сообщения
Вы не можете редактировать свои сообщения
Вы не можете удалять свои сообщения
Вы не можете голосовать в опросах
Вы не можете прикреплять файлы к сообщениям
Вы не можете скачивать файлы