Сегодня идет свободное скачивание без начисления Download

Андрей Журавлев. | Мастер-класс. Цветокоррекция по числам. (2013) WEBRip [H.264]

Ответить на тему
 
Автор
Сообщение

moralis ®

Пол:

Стаж: 2 года 10 месяцев

Сообщений: 1691

Торрент-статистика

Пост 03-Апр-2016 14:30

[Цитировать]

Мастер-класс. Цветокоррекция по числам. - Автор (режиссер): Андрей Журавлев.
Жанр: Обучающее видео
Описание:
Как формируется цвет из яркостей красного, зеленого и синего источников света. Как быстрее оценить имеющийся в изображении оттенок. На какие нюансы нужно обратить внимание. Как цвет зависит от профиля рабочего пространства. В чем плюсы и минусы оценки цвета по значениям RGB, CMYK и Lab. Об этом и расскажет известный специалист по цветокоррекции и допечатной подготовке, преподаватель Profileschool, Андрей Журавлев.
Продолжительность: 02:17:09
Качество видео: WEBRip
Видео: AVC/H.264, 1812х1080, ~1671 Кбит/сек
Аудио: AAC, 2 ch, 126 Кбит/сек, CBR

Mediainfo:

Код:
Полное имя                               : D:\Adobe\Фотошоп\Видео-Ютуб\Журавлев Алексей\Мастер-класс. Цветокоррекция по числам. Андрей Журавлев.mp4
Формат                                   : MPEG-4
Профиль формата                          : Base Media
Идентификатор кодека                     : isom (isom/iso2/avc1/mp41)
Размер файла                             : 1,73 Гбайт
Продолжительность                        : 2 ч. 17 м.
Общий поток                              : 1804 Кбит/сек
Программа кодирования                    : Lavf55.22.100
Идентификатор                            : 1
Формат                                   : AVC
Формат/Информация                        : Advanced Video Codec
Профиль формата                          : [email protected]
Параметр CABAC формата                   : Да
Параметр ReFrames формата                : 3 кадра
Идентификатор кодека                     : avc1
Идентификатор кодека/Информация          : Advanced Video Coding
Продолжительность                        : 2 ч. 17 м.
Битрейт                                  : 1671 Кбит/сек
Ширина                                   : 1812 пикселей
Высота                                   : 1080 пикселей
Соотношение сторон                       : 5:3
Режим частоты кадров                     : Постоянный
Частота кадров                           : 30,000 кадров/сек
Цветовое пространство                    : YUV
Субдискретизация насыщенности            : 4:2:0
Битовая глубина                          : 8 бит
Тип развёртки                            : Прогрессивная
Бит/(Пиксели*Кадры)                      : 0.028
Размер потока                            : 1,60 Гбайт (93%)
Идентификатор                            : 2
Формат                                   : AAC
Формат/Информация                        : Advanced Audio Codec
Профиль формата                          : LC
Идентификатор кодека                     : 40
Продолжительность                        : 2 ч. 17 м.
Вид битрейта                             : Постоянный
Битрейт                                  : 126 Кбит/сек
Каналы                                   : 2 канала
Расположение каналов                     : Front: L R
Частота                                  : 44,1 КГц
Частота кадров                           : 43,066 кадра/сек (1024 spf)
Метод сжатия                             : С потерями
Размер потока                            : 123 Мбайт (7%)
Default                                  : Да
Alternate group                          : 1
Скриншоты:
       
Вне форума [Профиль] [ЛС]
Похожие темы
Форум Тема Автор Торрент Отв. Посл. сообщение
./templates/default/images/folder_dl.gif Обучающее видео Андрей Жуков | Работа с естественным и импульсным светом в различных условиях (2014) PCRec Omen
1 | 0

0 | 1565

38

2014-11-02 23:59
Omen Последнее
./templates/default/images/folder_dl.gif Произведения отечественных авторов Павел Корнев, Андрей Круз - Приграничье 8. Хмель и Клондайк [Андрей Кравец, 2016 г., 128 kbps, MP3] Omen
1 | 0

0 | 1603

13

2015-12-06 06:11
Omen Последнее
./templates/default/images/folder_dl.gif Фантастика, фэнтези, ужасы, мистика Корнев Павел - Приграничье 5, Ледяная цитадель [Андрей Кравец, 2013 г., 128 kbps, MP3] Omen
1 | 0

0 | 1232

26

2016-01-13 00:01
Omen Последнее
./templates/default/images/folder_dl.gif Фантастика, фэнтези, ужасы, мистика Павел Корнев, Андрей Круз - Приграничье 9. Холод, пиво, дробовик [Андрей Кравец, 2016 г., 128 kbps, MP3] Omen
1 | 0

0 | 793

5

2016-02-14 21:00
Omen Последнее
./templates/default/images/folder_dl.gif Фантастика, фэнтези, ужасы, мистика Корнев Павел. Круз Андрей - Приграничье 10: Ведьмы, карта, карабин [Андрей Кравец, 2016 г., 128 kbps, MP3] Omen
1 | 0

0 | 1143

3

2016-04-29 21:00
Omen Последнее
./templates/default/images/folder_dl.gif Обучающая и научно-популярная литература Курпатов Андрей - Одна совершенно секретная таблетка от страха [Леонов Андрей, 2016 г., 96 kbps, MP3] Omen
1 | 0

0 | 532

1

2016-09-12 01:01
Omen Последнее
./templates/default/images/folder_dl.gif Психология, Тренинг, Саморазвитие Олег Андреев | Техника развития памяти (2006) [PDF] XP1971
1 | 0

0 | 2230

4

2017-01-17 10:13
XP1971 Последнее
./templates/default/images/folder_dl.gif Психология, Тренинг, Саморазвитие Олег Андреев | Техника развития внимания (2007) [PDF] XP1971
1 | 0

0 | 2323

3

2017-01-17 10:16
XP1971 Последнее
./templates/default/images/folder_dl.gif Фантастика, фэнтези, ужасы, мистика Павел Корнев, Андрей Круз | Короткое лето (2017) [MP3] }{@R0N
1 | 0

0 | 12770

12

2017-06-03 21:42
}{@R0N Последнее
./templates/default/images/folder_dl.gif Компьютерная литература Андрей Ветров | Word,Excel 2013-2016 [2 книги] (2017) [PDF, RTF] }{@R0N
2 | 0

0 | 137

11

2018-01-22 20:07
}{@R0N Последнее
Показать сообщения:    
Ответить на тему

Текущее время: Сегодня 02:34

Часовой пояс: GMT + 3



Вы не можете начинать темы
Вы не можете отвечать на сообщения
Вы не можете редактировать свои сообщения
Вы не можете удалять свои сообщения
Вы не можете голосовать в опросах
Вы не можете прикреплять файлы к сообщениям
Вы не можете скачивать файлы