Сегодня идет свободное скачивание без начисления Download

Вам письмо / You've Got Mail (Нора Эфрон) [1998 г., мелодрама, комедия, ВDRip 720р]

Ответить на тему
 
Автор
Сообщение

Delia ®

Пол:

Стаж: 6 лет 7 месяцев

Сообщений: 1930

Торрент-статистика

Пост 02-Мар-2011 11:21

[Цитировать]

Вам письмоYou've Got Mail Год выпуска: 1998
Страна: США
Жанр: мелодрама, комедия
Продолжительность: 01:59:23
Перевод: Профессиональный (полное дублирование)
Режиссер: Нора Эфрон
Продюссер: Дж. Мак Браун, Дайян Дрейер, Джули Дерк
Сценарий: Миклош Ласло, Нора Эфрон, Делия Эфрон
Бюджет: $65 000 000
Премьера в мире: 18 декабря 1998
В ролях: Том Хэнкс, Мег Райан, Грег Киннер, Паркер Поузи, Джин Степлтон, Стив Зан, Хезер Бёрнс, Дэйв Шаппелл, Дэбни Коулмен, Джон Рэндольф
Описание: Джо Фокс и Кэтлин Келли переписываются через Интернет. У Джо есть девушка, у Кэтлин — парень, но излить душу они могут лишь друг другу. Кэтлин принадлежит маленький книжный магазинчик детской литературы под названием «Магазин за углом», перешедший ей от матери. Для нее, трех ее сотрудников и покупателей это не просто место работы — это оазис тепла, человечности и культуры.Джо владеет сетью огромных книжных супермаркетов «Фокс и сыновья». Он открывает такой комплекс рядом с магазином Кэтлин и заходит к ней якобы купить несколько книжек для детей. Так состоялось их «живое» знакомство. Чуть позже Кэтлин узнает, что Джо и есть владелец супермаркета, грозящего ей неизбежным разорением — цены там намного ниже. Естественно, она сразу же возненавидела бездушного конкурента. А в Интернете их роман продолжался...
Качество: ВDRip 720р
Формат: MKV
Видео кодек: H.264
Аудио кодек: AC3
Видео: English, 3499 Кбит/сек, 1280*720 (16:9), в 23,976 кадр/сек, AVC ([email protected])
Аудио#: Russian, 384 Кбит/сек, 48,0 КГц, 16 бит, 6 канала(ов), AC-3|дубляж
Аудио#:Russian, 384 Кбит/сек, 48,0 КГц, 16 бит, 6 канала(ов), AC-3 | Сербин
Аудио#: English, 384 Кбит/сек, 48,0 КГц, 16 бит, 6 канала(ов), AC-3| оригинал
Cубтитры:русские

Media Info:

Уникальный идентификатор : 212474519610434119522474200244110922607 (0x9FD91A9E05452FA5AEA29F915EEA936F)
Полное имя : E:\торрент\You've Got Mail (1998) BDRip 720р.mkv
Формат : Matroska
Размер файла : 3,88 Гбайт
Продолжительность : 1 ч. 59 м.
Общий поток : 4650 Кбит/сек
Дата кодирования : UTC 2011-03-02 07:16:06
Программа кодирования : mkvmerge v4.5.0 ('Speed of Light') built on Feb 1 2011 02:10:32
Библиотека кодирования : libebml v1.2.0 + libmatroska v1.1.0
Видео
Идентификатор : 1
Формат : AVC
Формат/Информация : Advanced Video Codec
Профиль формата : [email protected]
Параметр CABAC формата : Да
Параметр ReFrames формата : 14 кадры
Идентификатор кодека : V_MPEG4/ISO/AVC
Продолжительность : 1 ч. 59 м.
Битрейт : 3499 Кбит/сек
Ширина : 1280 пикс.
Высота : 720 пикс.
Соотношение сторон : 16:9
Частота кадров : 23,976 кадр/сек
Цветовое пространство : YUV
Подвыборка цветности : 4:2:0
Битовая глубина : 8 бит
Тип развёртки : Прогрессивная
Бит/(Пиксели*Кадры) : 0.158
Размер потока : 2,84 Гбайт (73%)
Библиотека кодирования : x264 core 114 r1913 5fd3dce
Настройки программы : cabac=1 / ref=14 / deblock=1:-3:-3 / analyse=0x3:0x133 / me=umh / subme=7 / psy=1 / psy_rd=1.00:0.15 / mixed_ref=1 / me_range=32 / chroma_me=1 / trellis=2 / 8x8dct=1 / cqm=0 / deadzone=21,11 / fast_pskip=0 / chroma_qp_offset=-3 / threads=6 / sliced_threads=0 / nr=0 / decimate=1 / interlaced=0 / constrained_intra=0 / bframes=5 / b_pyramid=2 / b_adapt=1 / b_bias=0 / direct=1 / weightb=0 / open_gop=0 / weightp=2 / keyint=250 / keyint_min=23 / scenecut=40 / intra_refresh=0 / rc_lookahead=40 / rc=2pass / mbtree=1 / bitrate=3499 / ratetol=1.0 / qcomp=0.80 / qpmin=10 / qpmax=51 / qpstep=4 / cplxblur=20.0 / qblur=0.5 / ip_ratio=1.40 / aq=1:1.00
Язык : English
Аудио #1
Идентификатор : 2
Формат : AC-3
Формат/Информация : Audio Coding 3
Расширение режима : CM (complete main)
Идентификатор кодека : A_AC3
Продолжительность : 1 ч. 59 м.
Вид битрейта : Постоянный
Битрейт : 384 Кбит/сек
Канал(ы) : 6 канала(ов)
Расположение каналов : Front: L C R, Side: L R, LFE
Частота : 48,0 КГц
Битовая глубина : 16 бит
Метод сжатия : С потерями
Размер потока : 328 Мбайт (8%)
Язык : Russian
Аудио #2
Идентификатор : 3
Формат : AC-3
Формат/Информация : Audio Coding 3
Расширение режима : CM (complete main)
Идентификатор кодека : A_AC3
Продолжительность : 1 ч. 59 м.
Вид битрейта : Постоянный
Битрейт : 384 Кбит/сек
Канал(ы) : 6 канала(ов)
Расположение каналов : Front: L C R, Side: L R, LFE
Частота : 48,0 КГц
Битовая глубина : 16 бит
Метод сжатия : С потерями
Размер потока : 328 Мбайт (8%)
Язык : Russian
Аудио #3
Идентификатор : 4
Формат : AC-3
Формат/Информация : Audio Coding 3
Расширение режима : CM (complete main)
Идентификатор кодека : A_AC3
Продолжительность : 1 ч. 59 м.
Вид битрейта : Постоянный
Битрейт : 384 Кбит/сек
Канал(ы) : 6 канала(ов)
Расположение каналов : Front: L C R, Side: L R, LFE
Частота : 48,0 КГц
Битовая глубина : 16 бит
Метод сжатия : С потерями
Размер потока : 328 Мбайт (8%)
Язык : English
Текст
Идентификатор : 5
Формат : UTF-8
Идентификатор кодека : S_TEXT/UTF8
Идентификатор кодека/Информация : UTF-8 Plain Text
Меню
00:00:00.000 : en:00:00:00.000
00:03:03.016 : en:00:03:03.016
00:07:08.094 : en:00:07:08.094
00:08:34.055 : en:00:08:34.055
00:13:38.901 : en:00:13:38.901
00:16:03.588 : en:00:16:03.588
00:18:01.080 : en:00:18:01.080
00:21:07.308 : en:00:21:07.308
00:23:52.097 : en:00:23:52.097
00:29:26.431 : en:00:29:26.431
00:33:31.509 : en:00:33:31.509
00:38:29.015 : en:00:38:29.015
00:41:23.106 : en:00:41:23.106
00:44:09.230 : en:00:44:09.230
00:46:30.621 : en:00:46:30.621
00:51:10.859 : en:00:51:10.859
00:54:31.518 : en:00:54:31.518
00:57:43.710 : en:00:57:43.710
01:01:43.825 : en:01:01:43.825
01:07:34.384 : en:01:07:34.384
01:11:41.756 : en:01:11:41.756
01:17:05.037 : en:01:17:05.037
01:18:29.163 : en:01:18:29.163
01:22:32.364 : en:01:22:32.364
01:26:46.368 : en:01:26:46.368
01:29:41.793 : en:01:29:41.793
01:32:17.490 : en:01:32:17.490
01:35:02.322 : en:01:35:02.322
01:40:53.506 : en:01:40:53.506
01:43:33.874 : en:01:43:33.874
01:47:55.469 : en:01:47:55.469
01:52:15.103 : en:01:52:15.103
01:55:36.138 : en:01:55:36.138

Скриншоты

        

_________________
Человек – это канат, натянутый между животным и сверхчеловеком, – канат над пропастью.
В человеке ценно то, что он мост, а не цель. Фридрих Ницше


Последний раз редактировалось: Delia (2011-08-25 22:57), всего редактировалось 2 раз(а)
Вне форума [Профиль] [ЛС]
Показать сообщения:    
Ответить на тему

Текущее время: Сегодня 15:09

Часовой пояс: GMT + 3



Вы не можете начинать темы
Вы не можете отвечать на сообщения
Вы не можете редактировать свои сообщения
Вы не можете удалять свои сообщения
Вы не можете голосовать в опросах
Вы не можете прикреплять файлы к сообщениям
Вы не можете скачивать файлы