Сегодня идет свободное скачивание без начисления Download

Зловещие Алкаши 2: Белая горячка / Evil Dead II (Сэм Рэйми) [1987 / 2015 г., пародия, комедия, HDRip] VO [смешной перевод, Deadpool Project]

Ответить на тему
 
Автор
Сообщение

Region_13 ®

Пол:

Стаж: 2 года 10 месяцев

Сообщений: 923

Откуда: Мальдивы

Торрент-статистика

Пост 07-Апр-2016 19:21

[Цитировать]

Зловещие Алкаши 2: Белая горячка / Evil Dead II Год выпуска: 1987 / 2015
Страна: США
Жанр: пародия, комедия
Длительность: 01:23:44
Перевод: Любительский одноголосый (смешной перевод студии Deadpool Project)
Субтитры: нет
Режиссер: Сэм Рэйми
В ролях: Брюс Кэмпбелл (Ashley «Ash» J. Williams), Сара Берри (Annie Knowby), Дэн Хикс (Jake), Кэсси ДеПайва (Bobby Joe), Тед Рэйми (Possessed Henrietta), Дениз Бикслер (Linda), Ричард Домайер (Ed Getley), Джон Пикс (Professor Raymond Knowby), Лу Хэнкок (Henrietta Knowby), Сноуи Уинтерс (Dancer), Сид Абрамс (Fake Shemp), Джош Бекер (Fake Shemp)


MPAA: R - Лицам до 17 лет обязательно присутствие взрослого
Описание:
Парень Эш и его любимая девушка Люся отправляются в тихий лесной домик, рассчитывая вместе приятно провести время. Настроенные на секс и пьянку молодые люди обнаруживают в доме старинную книгу алкоголиков и магнитофон со вставленной кассетой. Эш решает прослушать запись на пленке, не подозревая, чем все это обернется.
Качество: HDRip
Формат: AVI
Видео: XviD, 720x400 (16:9), 2243 kbps, 23,976 fps, 0,325 bpp
Аудио: MP3 / 2.0 / 48 kHz / 192 kbps /

Mediainfo

Код:
Общее
Полное имя                               : D:\Фильмы\Zloveshie.Alcashi.2.2015.HDrip.avi
Формат                                   : AVI
Формат/Информация                        : Audio Video Interleave
Размер файла                             : 1,43 Гбайт
Длительность                        : 1 ч. 23 м.
Общий поток                              : 2445 Кбит/сек
Видео
Идентификатор                            : 0
Формат                                   : MPEG-4 Visual
Профиль формата                          : Advanced [email protected]
Параметр BVOP формата                    : 2
Параметр QPel формата                    : Нет
Параметр GMC формата                     : Без точки перехода
Параметр матрицы формата                 : Default (MPEG)
Идентификатор кодека                     : XVID
Идентификатор кодека/Подсказка           : XviD
Длительность                        : 1 ч. 23 м.
Битрейт                                  : 2244 Кбит/сек
Ширина                                   : 720 пикселей
Высота                                   : 400 пикселей
Соотношение сторон                       : 16:9
Частота кадров                           : 23,976 кадра/сек
Цветовое пространство                    : YUV
Субдискретизация насыщенности            : 4:2:0
Битовая глубина                          : 8 бит
Тип развёртки                            : Прогрессивная
Метод сжатия                             : С потерями
Бит/(Пиксели*Кадры)                      : 0.325
Размер потока                            : 1,31 Гбайт (92%)
Библиотека кодирования                   : XviD 73
Аудио
Идентификатор                            : 1
Формат                                   : MPEG Audio
Версия формата                           : Version 1
Профиль формата                          : Layer 3
Идентификатор кодека                     : 55
Идентификатор кодека/Подсказка           : MP3
Длительность                        : 1 ч. 23 м.
Вид битрейта                             : Постоянный
Битрейт                                  : 192 Кбит/сек
Каналы                                   : 2 канала
Частота                                  : 48,0 КГц
Метод сжатия                             : С потерями
Размер потока                            : 115 Мбайт (8%)
Выравнивание                             : Разделение по промежуткам
Длительность промежутка             : 42  мс. (1,00 видеокадр)
Библиотека кодирования                   : LAMELAME_MAJOR_VERSI

Скриншоты

     
Примечание автора раздачи:
Релиз от Альянса Вольных Переводчиков.
Присутствует нецензурная лексика.

_________________
Вне форума [Профиль] [ЛС]
Показать сообщения:    
Ответить на тему

Текущее время: Сегодня 17:29

Часовой пояс: GMT + 3



Вы не можете начинать темы
Вы не можете отвечать на сообщения
Вы не можете редактировать свои сообщения
Вы не можете удалять свои сообщения
Вы не можете голосовать в опросах
Вы не можете прикреплять файлы к сообщениям
Вы не можете скачивать файлы