Сегодня идет свободное скачивание без начисления Download

Американский ниндзя / American Ninja (Сэм Фёрстенберг / Sam Firstenberg) [1985, Боевик, Приключения, HDRip]

Ответить на тему
 
Автор
Сообщение

KottoSOFT ®

Стаж: 2 года 4 месяца

Сообщений: 309

Торрент-статистика

Пост 10-Апр-2016 18:44

[Цитировать]

Американский ниндзя / American Ninja --- Производство: США
Жанр: Боевик, Приключения
Режиссер: Сэм Фёрстенберг
Актеры: Майкл Дудикофф, Стив Джеймс, Джуди Аронсон, Гиш Кук, Джон Фуджиока, Дон Стюарт, Фил Брок, Джон Ла Мотта
Описание:
Джо Армстронг, 18 — летний рядовой филиппинского отряда армии США, сопровождает военный конвой, который подвергается нападению бандитов. В одном из них Джо узнает черного воина — ниндзя. Обороняясь, он инстинктивно начинает использовать технику ниндзюцу.
Эта неожиданно проявившаяся способность вызывает подозрение у командира его отряда и остальных солдат. Распутывая паутину темных интриг, Джо остается один в битве с окружающей его коррупцией. В конце концов, в глубине непроходимых джунглей, Джо раскрывает тайну собственного прошлого, тайну, ведущую его к последнему бою со зловещим предводителем Черных Ниндзя.


Продолжительность: 01:31:35
Качество видео: HDRip
Перевод: Многоголосый закадровый
Видео: 720x400 (1.80:1), 25 fps, XviD build 50 ~2083 kbps avg, 0.29 bit/pixel
Аудио: 48 kHz, AC3 Dolby Digital, 2/0 (L,R) ch, ~192 kbps

Mediainfo:

Код:
Общее
Полное имя                               : Americanskii_Ninzja.avi
Формат                                   : AVI
Формат/Информация                        : Audio Video Interleave
Размер файла                             : 1,46 Гбайт
Продолжительность                        : 1 ч. 31 м.
Общий поток                              : 2285 Кбит/сек
Программа кодирования                    : VirtualDubMod 1.5.10.3 | [url=http://www.virtualdub-fr.org]www.virtualdub-fr.org[/url] || (build 2550/release)
Библиотека кодирования                   : VirtualDubMod build 2550/release
Видео
Идентификатор                            : 0
Формат                                   : MPEG-4 Visual
Профиль формата                          : Advanced [email protected]
Параметр BVOP формата                    : 1
Параметр QPel формата                    : Нет
Параметр GMC формата                     : Без точки перехода
Параметр матрицы формата                 : Default (MPEG)
Идентификатор кодека                     : XVID
Идентификатор кодека/Подсказка           : XviD
Продолжительность                        : 1 ч. 31 м.
Битрейт                                  : 2084 Кбит/сек
Ширина                                   : 720 пикселей
Высота                                   : 400 пикселей
Соотношение сторон                       : 16:9
Частота кадров                           : 25,000 кадров/сек
Цветовое пространство                    : YUV
Субдискретизация насыщенности            : 4:2:0
Битовая глубина                          : 8 бит
Тип развёртки                            : Прогрессивная
Метод сжатия                             : С потерями
Бит/(Пиксели*Кадры)                      : 0.289
Размер потока                            : 1,33 Гбайт (91%)
Библиотека кодирования                   : XviD 1.2.1 (UTC 2008-12-04)
Аудио
Идентификатор                            : 1
Формат                                   : AC-3
Формат/Информация                        : Audio Coding 3
Расширение режима                        : CM (complete main)
Параметр Endianness формата              : Big
Идентификатор кодека                     : 2000
Продолжительность                        : 1 ч. 31 м.
Вид битрейта                             : Постоянный
Битрейт                                  : 192 Кбит/сек
Каналы                                   : 2 канала
Расположение каналов                     : Front: L R
Частота                                  : 48,0 КГц
Частота кадров                           : 31,250 кадров/сек (1536 spf)
Метод сжатия                             : С потерями
Размер потока                            : 126 Мбайт (8%)
Выравнивание                             : Разделение по промежуткам
Продолжительность промежутка             : 40  мс. (1,00 видеокадр)
Время предзагрузки промежутка            : 500  мс.
Скриншоты:
       

_________________
Сборщик Windows
Вне форума [Профиль] [ЛС]

Dracula

Стаж: 3 года 1 месяц

Сообщений: 9854

Торрент-статистика

Пост 10-Апр-2016 18:56 (спустя 11 минут)

Топик был перенесен из форума Зарубежные фильмы в форум Фильмы до 2000 года


Геннадич
 
Похожие темы
Форум Тема Автор Торрент Отв. Посл. сообщение
./templates/default/images/folder_dl.gif ЖЗЛ. Биографии. Мемуары. Историография. Дмитрий Таболкин | 100 знаменитых американцев [2008] [FB2] sashau
1 | 0

0 | 758

2

2013-04-06 17:38
sashau Последнее
Показать сообщения:    
Ответить на тему

Текущее время: Сегодня 13:10

Часовой пояс: GMT + 3



Вы не можете начинать темы
Вы не можете отвечать на сообщения
Вы не можете редактировать свои сообщения
Вы не можете удалять свои сообщения
Вы не можете голосовать в опросах
Вы не можете прикреплять файлы к сообщениям
Вы не можете скачивать файлы