Сегодня идет свободное скачивание без начисления Download

Крестный отец / The Godfather (1972) BDRip [H.265/1080p]

Ответить на тему
 
Автор
Сообщение

KottoSOFT ®

Стаж: 2 года 4 месяца

Сообщений: 309

Торрент-статистика

Пост 14-Апр-2016 09:44

[Цитировать]

Крестный отец / The Godfather (1972) BDRip - Производство: США / Paramount Pictures, Alfran Productions
Жанр: Драма, Криминал
Режиссер: Френсис Форд Коппола
Актеры: Марлон Брандо, Аль Пачино, Джеймс Каан, Роберт Дювалл, Стерлинг Хейден, Ричард С. Кастеллано, Талия Шайр, Сальваторе Корситто, Аль Леттьери, Дайан Китон, Джон Марли, Ричард Конте, Ричард Брайт, Джанни Руссо, Моргана Кинг, Аль Мартино, Тере Ливрано, Ленни Монтана, Джон Мартино, Джон Казале, Эйб Вигода, Алекс Рокко, Тони Джорджо, Вито Скотти, Руди Бонд, Симонетта Стефанелли, Анджело Инфанти
Описание:
Криминальная сага, повествующая о нью-йоркской сицилийской мафиозной семье Корлеоне. Фильм охватывает период 1945-1955 годов. Глава семьи, Дон Вито Корлеоне, выдаёт замуж свою дочь. В это время со Второй мировой войны возвращается его любимый сын Майкл. Майкл, герой войны, гордость семьи, не выражает желания заняться жестоким семейным бизнесом. Дон Корлеоне ведёт дела по старым правилам, но наступают иные времена, и появляются люди, желающие изменить сложившиеся порядки. На Дона Корлеоне совершается покушение.

Возраст: 16+ (зрителям, достигшим 16 лет)
Рейтинг MPAA: R (лицам до 17 лет обязательно присутствие взрослого)
Релиз от: PirateMKV
Продолжительность: 02:57:09
Качество видео: BDRip
Перевод: Многоголосый закадровый, профессиональный (Киномания)
Язык субтитров: Итальянский, английский, русский
Вид субтитров: Вшитые (отключаемые)
Видео: HEVC/H.265, 1920x1080, ~6566 Kbps
Аудио: AC3, 6 ch, 448 Kbps, CBR

Mediainfo:

Код:
Общее
Уникальный идентификатор                 : 213041977037615520632821166673894843128 (0xA046646DB20ADCD29FE523C23DC422F8)
Полное имя                               : E:\Video\Крестный отец (The Godfather).mkv
Формат                                   : Matroska
Версия формата                           : Version 4 / Version 2
Размер файла                             : 8,68 Гбайт
Продолжительность                        : 2 ч. 57 м.
Общий поток                              : 7016 Кбит/сек
Название фильма                          : Крестный отец / The Godfather
Дата кодирования                         : UTC 2016-04-13 11:55:03
Программа кодирования                    : mkvmerge v9.0.1 ('Obstacles') 64bit
Библиотека кодирования                   : libebml v1.3.3 + libmatroska v1.4.4
Attachments                              : eb33d97ae819cf2ad6ba323eaef3cbcd.jpg
Видео
Идентификатор                            : 1
Формат                                   : HEVC
Формат/Информация                        : High Efficiency Video Coding
Профиль формата                          : [email protected]@Main
Идентификатор кодека                     : V_MPEGH/ISO/HEVC
Продолжительность                        : 2 ч. 57 м.
Битрейт                                  : 6566 Кбит/сек
Ширина                                   : 1920 пикселей
Высота                                   : 1080 пикселей
Соотношение сторон                       : 16:9
Режим частоты кадров                     : Постоянный
Частота кадров                           : 23,976 (24000/1001) кадра/сек
Цветовое пространство                    : YUV
Субдискретизация насыщенности            : 4:2:0
Битовая глубина                          : 8 бит
Бит/(Пиксели*Кадры)                      : 0.132
Размер потока                            : 8,12 Гбайт (94%)
Библиотека кодирования                   : x265 1.9:[Windows][GCC 5.2.0][64 bit] 8bit
Настройки программы                      : wpp / ctu=64 / min-cu-size=8 / max-tu-size=32 / tu-intra-depth=3 / tu-inter-depth=3 / me=2 / subme=4 / merange=57 / no-rect / no-amp / max-merge=3 / temporal-mvp / no-early-skip / rdpenalty=0 / no-tskip / no-tskip-fast / strong-intra-smoothing / no-lossless / no-cu-lossless / no-constrained-intra / fast-intra / open-gop / no-temporal-layers / interlace=0 / keyint=250 / min-keyint=23 / scenecut=40 / rc-lookahead=40 / lookahead-slices=0 / bframes=8 / bframe-bias=0 / b-adapt=2 / ref=4 / limit-refs=1 / limit-modes / weightp / weightb / aq-mode=1 / qg-size=32 / aq-strength=2.00 / cbqpoffs=0 / crqpoffs=0 / rd=4 / psy-rd=1.00 / rdoq-level=0 / psy-rdoq=0.00 / signhide / deblock=-1:-1 / sao / no-sao-non-deblock / b-pyramid / no-cutree / no-intra-refresh / rc=crf / crf=23.5 / qcomp=0.60 / qpmin=0 / qpmax=51 / qpstep=4 / vbv-maxrate=12000 / vbv-bufsize=12000 / crf-max=0.0 / ipratio=1.40 / pbratio=1.30
Язык                                     : English
Default                                  : Да
Forced                                   : Нет
Цветовой диапазон                        : Limited
Коэффициенты матрицы                     : BT.709
Аудио
Идентификатор                            : 6
Формат                                   : AC-3
Формат/Информация                        : Audio Coding 3
Расширение режима                        : CM (complete main)
Параметр Endianness формата              : Big
Идентификатор кодека                     : A_AC3
Продолжительность                        : 2 ч. 57 м.
Вид битрейта                             : Постоянный
Битрейт                                  : 448 Кбит/сек
Каналы                                   : 6 каналов
Расположение каналов                     : Front: L C R, Side: L R, LFE
Частота                                  : 48,0 КГц
Частота кадров                           : 31,250 кадров/сек (1536 spf)
Метод сжатия                             : С потерями
Размер потока                            : 568 Мбайт (6%)
Заголовок                                : Перевод: Профессиональный (многоголосый закадровый) Киномания
Язык                                     : Russian
Default                                  : Да
Forced                                   : Нет
Текст #1
Идентификатор                            : 2
Формат                                   : UTF-8
Идентификатор кодека                     : S_TEXT/UTF8
Идентификатор кодека/Информация          : UTF-8 Plain Text
Продолжительность                        : 44 м.
Битрейт                                  : 1 бит/сек
Count of elements                        : 9
Размер потока                            : 340 байт (0%)
Заголовок                                : Forced
Язык                                     : Italian
Default                                  : Нет
Forced                                   : Да
Текст #2
Идентификатор                            : 3
Формат                                   : UTF-8
Идентификатор кодека                     : S_TEXT/UTF8
Идентификатор кодека/Информация          : UTF-8 Plain Text
Продолжительность                        : 1 ч. 23 м.
Битрейт                                  : 3 бит/сек
Count of elements                        : 74
Размер потока                            : 2,05 Кбайт (0%)
Заголовок                                : Forced
Язык                                     : English
Default                                  : Нет
Forced                                   : Нет
Текст #3
Идентификатор                            : 4
Формат                                   : UTF-8
Идентификатор кодека                     : S_TEXT/UTF8
Идентификатор кодека/Информация          : UTF-8 Plain Text
Продолжительность                        : 2 ч. 55 м.
Битрейт                                  : 41 бит/сек
Count of elements                        : 1261
Размер потока                            : 53,2 Кбайт (0%)
Заголовок                                : Normal
Язык                                     : Italian
Default                                  : Нет
Forced                                   : Нет
Текст #4
Идентификатор                            : 5
Формат                                   : UTF-8
Идентификатор кодека                     : S_TEXT/UTF8
Идентификатор кодека/Информация          : UTF-8 Plain Text
Продолжительность                        : 2 ч. 51 м.
Битрейт                                  : 42 бит/сек
Count of elements                        : 1312
Размер потока                            : 53,8 Кбайт (0%)
Заголовок                                : Normal
Язык                                     : English
Default                                  : Нет
Forced                                   : Нет
Текст #5
Идентификатор                            : 7
Формат                                   : UTF-8
Идентификатор кодека                     : S_TEXT/UTF8
Идентификатор кодека/Информация          : UTF-8 Plain Text
Продолжительность                        : 2 ч. 51 м.
Битрейт                                  : 67 бит/сек
Count of elements                        : 1324
Размер потока                            : 85,1 Кбайт (0%)
Заголовок                                : iTunes
Язык                                     : Russian
Default                                  : Нет
Forced                                   : Нет
Текст #6
Идентификатор                            : 8
Формат                                   : UTF-8
Идентификатор кодека                     : S_TEXT/UTF8
Идентификатор кодека/Информация          : UTF-8 Plain Text
Продолжительность                        : 2 ч. 51 м.
Битрейт                                  : 77 бит/сек
Count of elements                        : 1686
Размер потока                            : 97,0 Кбайт (0%)
Заголовок                                : Карусель
Язык                                     : Russian
Default                                  : Да
Forced                                   : Нет
Текст #7
Идентификатор                            : 9
Формат                                   : UTF-8
Идентификатор кодека                     : S_TEXT/UTF8
Идентификатор кодека/Информация          : UTF-8 Plain Text
Продолжительность                        : 2 ч. 51 м.
Битрейт                                  : 82 бит/сек
Count of elements                        : 1804
Размер потока                            : 104 Кбайт (0%)
Заголовок                                : Позитив-мультимедиа
Язык                                     : Russian
Default                                  : Нет
Forced                                   : Нет
Меню
00:00:00.000                             : en:00:00:00.000
00:07:30.784                             : en:00:07:30.784
00:18:03.624                             : en:00:18:03.624
00:27:03.455                             : en:00:27:03.455
00:34:20.183                             : en:00:34:20.183
00:40:17.749                             : en:00:40:17.749
00:48:52.304                             : en:00:48:52.304
00:58:18.328                             : en:00:58:18.328
01:08:44.579                             : en:01:08:44.579
01:15:49.003                             : en:01:15:49.003
01:30:00.687                             : en:01:30:00.687
01:37:06.863                             : en:01:37:06.863
01:46:18.163                             : en:01:46:18.163
01:49:30.189                             : en:01:49:30.189
01:53:57.664                             : en:01:53:57.664
02:03:21.311                             : en:02:03:21.311
02:06:37.256                             : en:02:06:37.256
02:13:28.125                             : en:02:13:28.125
02:19:47.462                             : en:02:19:47.462
02:25:56.706                             : en:02:25:56.706
02:36:56.032                             : en:02:36:56.032
02:44:43.540                             : en:02:44:43.540
02:53:05.750                             : en:02:53:05.750
XMP
Xmp.video.FileName           : E:\Video\Крестный отец (The Godfather).mkv
Xmp.video.FileSize           : -9.53674e-007
Xmp.video.MimeType           : video/matroska
Xmp.video.EBMLVersion        : 1
Xmp.video.EBMLReadVersion    : 1
Xmp.video.DocType            : matroska
Xmp.video.DocTypeVersion     : 4
Xmp.video.DocTypeReadVersion : 2
Xmp.video.TimecodeScale      : 0.001
Xmp.video.MuxingApp          : libebml v1.3.3 + libmatroska v1.4.4
Xmp.video.WritingApp         : mkvmerge v9.0.1 ('Obstacles') 64bit
Xmp.video.Duration           : 10629161
Xmp.video.DateUTC            : 482241303
Xmp.video.Title              : Крестный отец / The Godfather
Xmp.video.TotalStream        : 27
Xmp.video.TrackLacing        : No
Xmp.video.Codec              : V_MPEGH/ISO/HEVC
Xmp.video.FrameRate          : 23.976
Xmp.video.Width              : 1920
Xmp.video.Height             : 1080
Xmp.video.SubTDefaultOn      : No
Xmp.video.SubTTrackForced    : Yes
Xmp.video.SubTTrackLacing    : No
Xmp.video.SubTCodec          : S_TEXT/UTF8
Xmp.video.SubTLang           : rus
Xmp.video.TrackName          : Позитив-мультимедиа
Xmp.audio.Compressor         : A_AC3
Xmp.audio.DefaultDuration    : 32000
Xmp.audio.TrackLang          : rus
Xmp.audio.SampleRate         : 48000
Xmp.video.AttachFileName     : eb33d97ae819cf2ad6ba323eaef3cbcd.jpg
Xmp.video.AttachFileMIME     : image/jpeg
Xmp.video.AttachFileUID      : 5574855362368084386
Xmp.video.AttachFileDesc     : BD cover
Xmp.video.AspectRatio        : 16:9
Скриншоты:
       

_________________
Сборщик Windows
Вне форума [Профиль] [ЛС]
Похожие темы
Форум Тема Автор Торрент Отв. Посл. сообщение
./templates/default/images/folder_dl.gif Приключения, детектив, боевик, триллер Маринина Александра - Тот, кто знает. Перекресток [Герасимов Вячеслав, 2012, 96 kbps, MP3] Omen
1 | 0

0 | 411

6

2012-12-11 05:28
Omen Последнее
./templates/default/images/folder_dl.gif Обучающее видео Радислав Гандапас - Крест лидера [2013, Бизнес, лидерство, DVDRip, RUS] (Видеоурок) Omen
1 | 0

0 | 499

32

2014-11-03 17:00
Omen Последнее
Показать сообщения:    
Ответить на тему

Текущее время: Сегодня 20:24

Часовой пояс: GMT + 3



Вы не можете начинать темы
Вы не можете отвечать на сообщения
Вы не можете редактировать свои сообщения
Вы не можете удалять свои сообщения
Вы не можете голосовать в опросах
Вы не можете прикреплять файлы к сообщениям
Вы не можете скачивать файлы