Сегодня идет свободное скачивание без начисления Download

Все без ума от Мэри / There's Something About Mary (Бобби Фаррелли / Bobby Farrelly, Питер Фаррелли / Peter Farrelly) [1998, комедия, BDRip 1080] [ театральная/ theatrical ]

Ответить на тему
 
Автор
Сообщение

Delia ®

Пол:

Стаж: 6 лет 7 месяцев

Сообщений: 1930

Торрент-статистика

Пост 24-Авг-2012 09:49

[Цитировать]

Все без ума от Мэри / There's Something About Mary«There's Just Something About Her...»--
Год выпуска: 1998
Страна: США
Жанр: мелодрама, комедия, ...
Продолжительность: 01:59:05
Перевод: Профессиональный (дублированный)
Субтитры: Russian , english,
Режиссер: Бобби Фаррелли, Питер Фаррелли
Сценарий: Эд Дектер, Джон Дж. Штраусс, Питер Фаррелли, ...
Продюсер: Фрэнк Бэддор, Чарльз Б. Весслер, Майкл Стейнберг, ...-В ролях:
Кэмерон Диаз (Mary), Мэтт Диллон (Healy), Бен Стиллер (Ted), Ли Эванс (Tucker), Крис Эллиот (Dom), Лин Шэй (Magda), Джефри Тэмбор (Sully), Марки Пост (Mary's Mom), Кит Дэвид (Mary's Dad), У. Эрл Браун (Warren), Сара Силверман (Brenda), Ханди Александр (Joanie)
Описание: Все началось 13 лет назад с ущемленного «достоинства» Теда, хронического неудачника, постоянно ставящего себя в комические ситуации: он настолько труслив, что способен вывести из себя собственного психиатра, настолько нелеп, что способен в самый ответственный момент прищемить свое мужское достоинство брючной молнией.Этому недотепе не особенно везет в жизни, но зато однажды повезло в любви: когда ему было 17, он встретил Мэри. Они собирались на школьную вечеринку, но тут как раз и произошел неприятный случай с молнией, положивший конец их роману.И вот, спустя 13 лет, Тед нанимает частного детектива Пэта для розыска женщины своей мечты. Мэри обладает фантастическим даром очаровывать всех окружающих ее мужчин. Ее шарм и обаяние заставляют их бросаться в бескомпромиссную борьбу за сердце красавицы...-Рейтинг MPAA: --Релиз группы:
--Качество: BDRip
Формат: MKV
Видео кодек: H.264 (AVC)
Аудио кодеk: AC3
Видео: 1920x1040 (16:9), 23.976 fps, AVC, 4 807 Kbps
Аудио: : AC3, 448 Kbps, 48.0 KHz, 6 ch

МедиаИнфо

Код:
General
Complete name                    : There's Something About Mary(1998)BDRip-F.HD.mkv
Format                           : Matroska
File size                        : 4.37 GiB
Duration                         : 1h 59mn
Overall bit rate                 : 5 257 Kbps
Encoded date                     : UTC 2012-08-24 05:43:09
Writing application              : mkvmerge v5.4.0 ('Piper') built on Mar 10 2012 13:34:39
Writing library                  : libebml v1.2.3 + libmatroska v1.3.0
Video
ID                               : 1
Format                           : AVC
Format/Info                      : Advanced Video Codec
Format profile                   : [email protected]
Format settings, CABAC           : Yes
Format settings, ReFrames        : 4 frames
Muxing mode                      : Container [email protected]
Codec ID                         : V_MPEG4/ISO/AVC
Duration                         : 1h 59mn
Bit rate                         : 4 807 Kbps
Width                            : 1 920 pixels
Height                           : 1 040 pixels
Display aspect ratio             : 16:9
Frame rate                       : 23.976 fps
Color space                      : YUV
Chroma subsampling               : 4:2:0
Bit depth                        : 8 bits
Scan type                        : Progressive
Bits/(Pixel*Frame)               : 0.100
Stream size                      : 3.91 GiB (89%)
Writing library                  : x264 core 125 r2208 d9d2288
Encoding settings                : cabac=1 / ref=4 / deblock=1:-1:-1 / analyse=0x3:0x113 / me=umh / subme=10 / psy=1 / psy_rd=0.85:0.05 / mixed_ref=1 / me_range=36 / chroma_me=1 / trellis=2 / 8x8dct=1 / cqm=0 / deadzone=21,11 / fast_pskip=0 / chroma_qp_offset=1 / threads=6 / lookahead_threads=1 / sliced_threads=0 / nr=0 / decimate=1 / interlaced=0 / bluray_compat=0 / constrained_intra=0 / bframes=7 / b_pyramid=2 / b_adapt=2 / b_bias=0 / direct=3 / weightb=1 / open_gop=0 / weightp=2 / keyint=240 / keyint_min=23 / scenecut=40 / intra_refresh=0 / rc=2pass / mbtree=0 / bitrate=4807 / ratetol=1.0 / qcomp=0.70 / qpmin=0 / qpmax=69 / qpstep=4 / cplxblur=20.0 / qblur=0.5 / ip_ratio=1.40 / pb_ratio=1.30 / aq=1:0.70
Audio
ID                               : 2
Format                           : AC-3
Format/Info                      : Audio Coding 3
Mode extension                   : CM (complete main)
Codec ID                         : A_AC3
Duration                         : 1h 59mn
Bit rate mode                    : Constant
Bit rate                         : 448 Kbps
Channel(s)                       : 6 channels
Channel positions                : Front: L C R, Side: L R, LFE
Sampling rate                    : 48.0 KHz
Bit depth                        : 16 bits
Stream size                      : 382 MiB (9%)
Language                         : Russian
Text #1
ID                               : 3
Format                           : UTF-8
Codec ID                         : S_TEXT/UTF8
Codec ID/Info                    : UTF-8 Plain Text
Language                         : Russian
Text #2
ID                               : 4
Format                           : UTF-8
Codec ID                         : S_TEXT/UTF8
Codec ID/Info                    : UTF-8 Plain Text
Menu
00:00:00.000                     : en:Chapter 01
00:02:19.597                     : en:Chapter 02
00:09:11.425                     : en:Chapter 03
00:13:06.118                     : en:Chapter 04
00:18:52.130                     : en:Chapter 05
00:22:28.972                     : en:Chapter 06
00:24:05.902                     : en:Chapter 07
00:32:12.930                     : en:Chapter 08
00:35:35.758                     : en:Chapter 09
00:38:38.858                     : en:Chapter 10
00:42:20.037                     : en:Chapter 11
00:44:44.306                     : en:Chapter 12
00:48:56.099                     : en:Chapter 13
00:51:22.954                     : en:Chapter 14
00:57:22.146                     : en:Chapter 15
01:00:11.691                     : en:Chapter 16
01:10:03.032                     : en:Chapter 17
01:15:18.096                     : en:Chapter 18
01:19:09.828                     : en:Chapter 19
01:20:54.391                     : en:Chapter 20
01:23:02.685                     : en:Chapter 21
01:29:41.125                     : en:Chapter 22
01:33:30.187                     : en:Chapter 23
01:36:25.612                     : en:Chapter 24
01:42:37.901                     : en:Chapter 25
01:45:18.103                     : en:Chapter 26
01:47:29.025                     : en:Chapter 27
01:49:32.941                     : en:Chapter 28
01:52:21.192                     : en:Chapter 29
01:53:03.526                     : en:Chapter 30
01:59:05.346                     : en:Chapter 31

Знаете ли Вы, что...

» В массовке участвовали друзья братьев Фаррелли.
» В фильме в роли сокамерника Теда снялся отец Кэмерон Диаз.


Скриншоты

     
     

_________________
Человек – это канат, натянутый между животным и сверхчеловеком, – канат над пропастью.
В человеке ценно то, что он мост, а не цель. Фридрих Ницше
Вне форума [Профиль] [ЛС]
Показать сообщения:    
Ответить на тему

Текущее время: Сегодня 22:51

Часовой пояс: GMT + 3



Вы не можете начинать темы
Вы не можете отвечать на сообщения
Вы не можете редактировать свои сообщения
Вы не можете удалять свои сообщения
Вы не можете голосовать в опросах
Вы не можете прикреплять файлы к сообщениям
Вы не можете скачивать файлы