Сегодня идет свободное скачивание без начисления Download

Титаник / Titanic (1997) HDRip

Ответить на тему
 
Автор
Сообщение

Varius ®

Пол:

Стаж: 6 лет 8 месяцев

Сообщений: 3919

Откуда: Hell

Торрент-статистика

Пост 01-Сен-2012 15:41

[Цитировать]

Титаник / Titanic (1997) HDRip- Русское название: Титаник
Оригинальное название: Titanic
Производство: США
Год выпуска: 1997
Жанр: Драма, мелодрама
Описание фильма:
Молодые влюбленные Джек и Роза находят друг друга в первом и последнем плавании «непотопляемого» Титаника. Они не могли знать, что шикарный лайнер столкнется с айсбергом в холодных водах Северной Атлантики, и их страстная любовь превратится в схватку со смертью…
Режиссер: Джеймс Кэмерон
Актеры: Леонардо ДиКаприо, Билл Пэкстон, Бернард Хилл, Фрэнсис Фишер, Кейт Уинслет, Билли Зейн, Кэти Бэйтс, Джонатан Хайд, Дэвид Уорнер, Йоан Граффадд, Виктор Гарбер, Сьюзи Эмис, Марк Линдсэй Чэпмэн, Дэнни Нуччи, Глория Стюарт, Брендан Коннолли, Джеймс Кэмерон
Продолжительность: 03:14:49
Перевод: Дублированный

Видеокодек: Xvid
Битрейт видео: ~869 Кбит/с
Размер кадра: 720x304
Качество видео: HDRip
Аудиокодек: AC3 2.0
Битрейт аудио: 192 Кбит/с
Награды и номинации

MediaInfo:

Общее
Полное имя : C:\Justlan\Титаник\Titanic.avi
Формат : AVI
Формат/Информация : Audio Video Interleave
Размер файла : 1,46 Гбайт
Продолжительность : 3 ч. 14 м.
Общий поток : 1070 Кбит/сек
Программа кодирования : VirtualDubMod 1.5.10.2 (build 2540/release)
Библиотека кодирования : VirtualDubMod build 2540/release
Видео
Идентификатор : 0
Формат : MPEG-4 Visual
Профиль формата : Advanced [email protected]
Параметр BVOP формата : 1
Параметр QPel формата : Нет
Параметр GMC формата : Без точки перехода
Параметр матрицы формата : Выборочная
Идентификатор кодека : XVID
Идентификатор кодека/Подсказка : XviD
Продолжительность : 3 ч. 14 м.
Битрейт : 869 Кбит/сек
Ширина : 720 пикселей
Высота : 304 пикселя
Соотношение сторон : 2,35:1
Частота кадров : 23,976 кадра/сек
Цветовое пространство : YUV
Субдискретизация насыщенности : 4:2:0
Битовая глубина : 8 бит
Тип развёртки : Прогрессивная
Метод сжатия : С потерями
Бит/(Пиксели*Кадры) : 0.166
Размер потока : 1,18 Гбайт (81%)
Библиотека кодирования : XviD 1.2.1 (UTC 2008-12-04)
Аудио
Идентификатор : 1
Формат : AC-3
Формат/Информация : Audio Coding 3
Расширение режима : CM (complete main)
Идентификатор кодека : 2000
Продолжительность : 3 ч. 14 м.
Вид битрейта : Постоянный
Битрейт : 192 Кбит/сек
Каналы : 2 канала
Расположение каналов : Front: L R
Частота : 48,0 КГц
Битовая глубина : 16 бит
Метод сжатия : С потерями
Размер потока : 268 Мбайт (18%)
Выравнивание : Разделение по промежуткам
Продолжительность промежутка : 42 мс. (1,00 видеокадр)
Время предзагрузки промежутка : 500 мс.
Скриншоты:          
         

_________________

Создавая "Новую папку", не считайте себя Создателем - это право Вам дано Админом


Вне форума [Профиль] [ЛС]
Показать сообщения:    
Ответить на тему

Текущее время: Сегодня 14:48

Часовой пояс: GMT + 3



Вы не можете начинать темы
Вы не можете отвечать на сообщения
Вы не можете редактировать свои сообщения
Вы не можете удалять свои сообщения
Вы не можете голосовать в опросах
Вы не можете прикреплять файлы к сообщениям
Вы не можете скачивать файлы