Сегодня идет свободное скачивание без начисления Download

Кулак легенды / Fist of Legend / Jing wu ying xiong (Гордон Чан / Gordon Chan) [1994, Гонконг, боевик, драма, BDRip]

Ответить на тему
 
Автор
Сообщение

Delia ®

Пол:

Стаж: 6 лет 7 месяцев

Сообщений: 1930

Торрент-статистика

Пост 03-Сен-2012 08:37

[Цитировать]

Кулак легенды / Jing wu ying xiong--
Год выпуска: 1994
Страна: Гонконг
Жанр: боевик, драма, ...
Продолжительность: 01:43:25
Перевод: Профессиональный (многоголосый закадровый)
Субтитры: Russian (3v) , english (srt)
Режиссер: Гордон Чан
Сценарий: Гордон Чан, Лан Кэй Тоа, Кеи То Лам, ...
Продюсер: Джет Ли, Чуй Йин Лам-В ролях:
Джет Ли (Chen Zhen), Шинобу Накаяма (Mitsuko Yamada), Сиу-ху Чин (Hou Ting-An), Билли Чоу (General Fujita, (Supreme Killer)), Ясуаки Курата (Fuimo Funakoshi), Пол Чун (Uncle Noh), Ада Чои (Rose), Чеунг-Ян Юэнь (Captain Jie), Toshimichi Takahashi (Japanese Ambassador), Кэрол Там (Wei), Джексон Лью (Ryuichi Akutagawa), Сунь Вонг (Cook)
Описание: В начале XX века во время японской оккупации Китая самураи, кичившиеся своим непобедимым каратэ, жестоко убили миролюбивого учителя кунг-фу Хо. Деморализованный народ даже не помышлял о сопротивлении. Устрашились все, кроме Жень Чена, самого одаренного ученика погибшего мастера.Узнав о случившемся, герой клянется во что бы то ни стало отомстить убийцам. И когда приходит час возмездия, стонущий под пятой захватчиков Шанхай превращается в поле грандиозной битвы между дерзким одиночкой и сонмом опаснейших врагов.--Релиз группы:

MPAA: R - Лицам до 17 лет обязательно присутствие взрослого--Качество: BDRip
Формат: MKV
Видео кодек: H.264 (AVC)
Аудио кодеk: AC3
Видео: 1920x1080 (16:9), 23.976 fps, AVC, 5 837 Kbps
Аудио: AC3, 224 Kbps, 48.0 KHz, 2 ch
Субтитры: русские (Full (ZuluZ)), русские (Full (se-nat)), русские (Forced), английские,

МедиаИнфо

Код:
General
Complete name                    : Fist of Legend(1994)BDRip-F.HD.mkv
Format                           : Matroska
File size                        : 4.37 GiB
Duration                         : 1h 43mn
Overall bit rate                 : 6 048 Kbps
Encoded date                     : UTC 2012-09-03 04:41:44
Writing application              : mkvmerge v5.4.0 ('Piper') built on Mar 10 2012 13:34:39
Writing library                  : libebml v1.2.3 + libmatroska v1.3.0
Video
ID                               : 1
Format                           : AVC
Format/Info                      : Advanced Video Codec
Format profile                   : [email protected]
Format settings, CABAC           : Yes
Format settings, ReFrames        : 4 frames
Muxing mode                      : Container [email protected]
Codec ID                         : V_MPEG4/ISO/AVC
Duration                         : 1h 43mn
Bit rate                         : 5 837 Kbps
Width                            : 1 920 pixels
Height                           : 1 080 pixels
Display aspect ratio             : 16:9
Frame rate                       : 23.976 fps
Color space                      : YUV
Chroma subsampling               : 4:2:0
Bit depth                        : 8 bits
Scan type                        : Progressive
Bits/(Pixel*Frame)               : 0.117
Stream size                      : 4.12 GiB (94%)
Writing library                  : x264 core 125 r2208 d9d2288
Encoding settings                : cabac=1 / ref=4 / deblock=1:0:0 / analyse=0x3:0x113 / me=umh / subme=10 / psy=1 / psy_rd=1.00:0.10 / mixed_ref=1 / me_range=32 / chroma_me=1 / trellis=2 / 8x8dct=1 / cqm=0 / deadzone=21,11 / fast_pskip=0 / chroma_qp_offset=1 / threads=6 / lookahead_threads=1 / sliced_threads=0 / nr=0 / decimate=1 / interlaced=0 / bluray_compat=0 / constrained_intra=0 / bframes=8 / b_pyramid=2 / b_adapt=2 / b_bias=0 / direct=3 / weightb=1 / open_gop=0 / weightp=2 / keyint=240 / keyint_min=23 / scenecut=40 / intra_refresh=0 / rc=2pass / mbtree=0 / bitrate=5837 / ratetol=1.0 / qcomp=0.70 / qpmin=0 / qpmax=69 / qpstep=4 / cplxblur=20.0 / qblur=0.5 / ip_ratio=1.40 / pb_ratio=1.30 / aq=1:0.75
Color primaries                  : BT.709-5, BT.1361, IEC 61966-2-4, SMPTE RP177
Transfer characteristics         : BT.709-5, BT.1361
Matrix coefficients              : BT.709-5, BT.1361, IEC 61966-2-4 709, SMPTE RP177
Audio
ID                               : 2
Format                           : AC-3
Format/Info                      : Audio Coding 3
Mode extension                   : CM (complete main)
Codec ID                         : A_AC3
Duration                         : 1h 43mn
Bit rate mode                    : Constant
Bit rate                         : 224 Kbps
Channel(s)                       : 2 channels
Channel positions                : Front: L R
Sampling rate                    : 48.0 KHz
Bit depth                        : 16 bits
Stream size                      : 166 MiB (4%)
Title                            : MVO.(Видеосервис)
Language                         : Russian
Text #1
ID                               : 3
Format                           : UTF-8
Codec ID                         : S_TEXT/UTF8
Codec ID/Info                    : UTF-8 Plain Text
Title                            : Full (ZuluZ)
Language                         : Russian
Text #2
ID                               : 4
Format                           : UTF-8
Codec ID                         : S_TEXT/UTF8
Codec ID/Info                    : UTF-8 Plain Text
Title                            : Full (se-nat)
Language                         : Russian
Text #3
ID                               : 5
Format                           : UTF-8
Codec ID                         : S_TEXT/UTF8
Codec ID/Info                    : UTF-8 Plain Text
Title                            : Forced
Language                         : Russian
Text #4
ID                               : 6
Format                           : UTF-8
Codec ID                         : S_TEXT/UTF8
Codec ID/Info                    : UTF-8 Plain Text
Menu
00:00:00.000                     : en:Chapter 01
00:02:17.971                     : en:Chapter 02
00:07:49.468                     : en:Chapter 03
00:10:02.851                     : en:Chapter 04
00:16:23.273                     : en:Chapter 05
00:21:41.008                     : en:Chapter 06
00:25:22.688                     : en:Chapter 07
00:27:44.579                     : en:Chapter 08
00:30:57.772                     : en:Chapter 09
00:34:34.405                     : en:Chapter 10
00:40:11.284                     : en:Chapter 11
00:44:50.646                     : en:Chapter 12
00:51:02.351                     : en:Chapter 13
00:53:48.224                     : en:Chapter 14
01:03:25.969                     : en:Chapter 15
01:05:56.161                     : en:Chapter 16
01:16:45.225                     : en:Chapter 17
01:18:52.603                     : en:Chapter 18
01:23:15.990                     : en:Chapter 19
01:24:54.006                     : en:Chapter 20
01:27:56.479                     : en:Chapter 21
01:36:44.841                     : en:Chapter 22
01:39:10.027                     : en:Chapter 23
01:40:55.173                     : en:Chapter 24


Скриншоты

     
     

_________________
Человек – это канат, натянутый между животным и сверхчеловеком, – канат над пропастью.
В человеке ценно то, что он мост, а не цель. Фридрих Ницше
Вне форума [Профиль] [ЛС]
Похожие темы
Форум Тема Автор Торрент Отв. Посл. сообщение
./templates/default/images/folder_dl.gif Приключения, детектив, боевик, триллер Чейз Джеймс Хедли - Поцелуй мой кулак [Валерий Стельмащук, (ЛИ), 2015 г., 128 kbps, MP3] Omen
1 | 0

0 | 263

8

2015-04-11 15:01
Omen Последнее
Показать сообщения:    
Ответить на тему

Текущее время: Сегодня 22:51

Часовой пояс: GMT + 3



Вы не можете начинать темы
Вы не можете отвечать на сообщения
Вы не можете редактировать свои сообщения
Вы не можете удалять свои сообщения
Вы не можете голосовать в опросах
Вы не можете прикреплять файлы к сообщениям
Вы не можете скачивать файлы