Сегодня идет свободное скачивание без начисления Download

Всё о Еве / All About Eve (Джозеф Лео Манкевич) [1950 г., драма, BDRip]

Ответить на тему
 
Автор
Сообщение

Delia ®

Пол:

Стаж: 6 лет 7 месяцев

Сообщений: 1930

Торрент-статистика

Пост 06-Мар-2011 01:47

[Цитировать]

Всё о Еве All About Eve«Это все о женщинах --- и их мужчин!» Год выпуска: 1950
Страна: США
Жанр: драма
Продолжительность: 138 мин.
Перевод: Профессиональный (полное дублирование)
Режиссер: Джозеф Лео Манкевич
Продюссер: Дэррил Ф. Занук
Сценарий: Джозеф Лео Манкевич, Эрих Кёстнер, Мэри Орр
Премьера в мире: 13 октября 1950
Релиз на Blu-Ray:17 февраля 2011, «Двадцатый Век Фокс СНГ»
В ролях: Бетт Дэвис, Энн Бэкстер, Джордж Сандерс, Селеста Холм, Гари Мэрилл, Хью Марлоу, Грегори Ратофф, Барбара Бейтс, Мэрилин Монро, Тельма Риттер
Описание: Стареющая звезда Бродвея Марго Ченнинг имела все: успех, друзей, молодого любовника. Скромная и трудолюбивая Ева становится ее помощницей, выполняющей все желания хозяйки. Быстрее всех понимает, что Евой движет желание стать «новой Марго Ченнинг», циничный театральный критик Аддисон Де Витт.Пресыщенный жизнью и презирающий окружающую его благопристойность, он решает помочь молодой карьеристке. Она становится его благодарной ученицей и упорно, не гнушаясь ничем, идет к вершинам славы, предавая окружающих ее людей...
Качество: BDRip
Формат: MKV
Видео кодек: H.264
Аудио кодек: AC3
Видео: English, 3689 Кбит/сек, 1280*928 (1,400), в 23,976 кадр/сек, AVC ([email protected])
Аудио: Russian, 448 Кбит/сек, 48,0 КГц, 16 бит, 6 канала(ов), AC-3
Аудио:English, 384 Кбит/сек, 48,0 КГц, 16 бит, 6 канала(ов), AC-3
Субтитры:Russian, VobSubEnglish, VobSub

Media Info:

Уникальный идентификатор : 207269739614286130866751707281873731336 (0x9BEEB326AC3BBF72ACFC7A38A2B07F08)
Полное имя : E:\торрент\All About Eve(1950) BDRip 720p.mkv
Формат : Matroska
Размер файла : 4,38 Гбайт
Продолжительность : 2 ч. 18 м.
Общий поток : 4533 Кбит/сек
Дата кодирования : UTC 2011-03-05 21:32:33
Программа кодирования : mkvmerge v4.5.0 ('Speed of Light') built on Feb 1 2011 02:10:32
Библиотека кодирования : libebml v1.2.0 + libmatroska v1.1.0
Видео
Идентификатор : 1
Формат : AVC
Формат/Информация : Advanced Video Codec
Профиль формата : [email protected]
Параметр CABAC формата : Да
Параметр ReFrames формата : 14 кадры
Идентификатор кодека : V_MPEG4/ISO/AVC
Продолжительность : 2 ч. 18 м.
Битрейт : 3689 Кбит/сек
Ширина : 1280 пикс.
Высота : 928 пикс.
Соотношение сторон : 1,400
Частота кадров : 23,976 кадр/сек
Цветовое пространство : YUV
Подвыборка цветности : 4:2:0
Битовая глубина : 8 бит
Тип развёртки : Прогрессивная
Бит/(Пиксели*Кадры) : 0.130
Размер потока : 3,49 Гбайт (80%)
Библиотека кодирования : x264 core 114 r1913 5fd3dce
Настройки программы : cabac=1 / ref=14 / deblock=1:-3:-3 / analyse=0x3:0x133 / me=umh / subme=7 / psy=1 / psy_rd=1.00:0.15 / mixed_ref=1 / me_range=32 / chroma_me=1 / trellis=2 / 8x8dct=1 / cqm=0 / deadzone=21,11 / fast_pskip=0 / chroma_qp_offset=-3 / threads=6 / sliced_threads=0 / nr=0 / decimate=1 / interlaced=0 / constrained_intra=0 / bframes=3 / b_pyramid=2 / b_adapt=1 / b_bias=0 / direct=1 / weightb=0 / open_gop=0 / weightp=2 / keyint=250 / keyint_min=23 / scenecut=40 / intra_refresh=0 / rc_lookahead=40 / rc=2pass / mbtree=1 / bitrate=3689 / ratetol=1.0 / qcomp=0.80 / qpmin=10 / qpmax=51 / qpstep=4 / cplxblur=20.0 / qblur=0.5 / ip_ratio=1.40 / aq=1:1.00
Язык : English
Аудио #1
Идентификатор : 2
Формат : AC-3
Формат/Информация : Audio Coding 3
Расширение режима : CM (complete main)
Идентификатор кодека : A_AC3
Продолжительность : 2 ч. 18 м.
Вид битрейта : Постоянный
Битрейт : 448 Кбит/сек
Канал(ы) : 6 канала(ов)
Расположение каналов : Front: L C R, Side: L R, LFE
Частота : 48,0 КГц
Битовая глубина : 16 бит
Метод сжатия : С потерями
Размер потока : 443 Мбайт (10%)
Язык : Russian
Аудио #2
Идентификатор : 3
Формат : AC-3
Формат/Информация : Audio Coding 3
Расширение режима : CM (complete main)
Идентификатор кодека : A_AC3
Продолжительность : 2 ч. 18 м.
Вид битрейта : Постоянный
Битрейт : 384 Кбит/сек
Канал(ы) : 6 канала(ов)
Расположение каналов : Front: L C R, Side: L R, LFE
Частота : 48,0 КГц
Битовая глубина : 16 бит
Метод сжатия : С потерями
Размер потока : 380 Мбайт (8%)
Язык : English
Текст #1
Идентификатор : 4
Формат : VobSub
Режим смешивания : zlib
Идентификатор кодека : S_VOBSUB
Идентификатор кодека/Информация : The same subtitle format used on DVDs
Язык : Russian
Текст #2
Идентификатор : 5
Формат : VobSub
Режим смешивания : zlib
Идентификатор кодека : S_VOBSUB
Идентификатор кодека/Информация : The same subtitle format used on DVDs
Язык : English
Меню
00:00:00.000 : en:00:00:00.000
00:01:06.650 : en:00:01:06.650
00:07:23.943 : en:00:07:23.943
00:09:46.586 : en:00:09:46.586
00:15:07.448 : en:00:15:07.448
00:21:44.637 : en:00:21:44.637
00:24:58.288 : en:00:24:58.288
00:27:34.987 : en:00:27:34.987
00:31:41.900 : en:00:31:41.900
00:37:44.971 : en:00:37:44.971
00:43:09.629 : en:00:43:09.629
00:53:30.332 : en:00:53:30.332
00:56:32.639 : en:00:56:32.639
00:59:20.849 : en:00:59:20.849
01:02:52.686 : en:01:02:52.686
01:06:27.192 : en:01:06:27.192
01:15:53.966 : en:01:15:53.966
01:25:05.976 : en:01:25:05.976
01:31:09.172 : en:01:31:09.172
01:35:17.462 : en:01:35:17.462
01:38:43.000 : en:01:38:43.000
01:42:28.976 : en:01:42:28.976
01:49:33.567 : en:01:49:33.567
01:52:55.477 : en:01:52:55.477
01:57:12.651 : en:01:57:12.651
02:06:02.430 : en:02:06:02.430
02:11:20.498 : en:02:11:20.498
02:17:29.450 : en:02:17:29.450

Скриншоты

        
Релиз от :

_________________
Человек – это канат, натянутый между животным и сверхчеловеком, – канат над пропастью.
В человеке ценно то, что он мост, а не цель. Фридрих Ницше


Последний раз редактировалось: Delia (2011-08-25 23:10), всего редактировалось 1 раз
Вне форума [Профиль] [ЛС]
Похожие темы
Форум Тема Автор Торрент Отв. Посл. сообщение
./templates/default/images/folder_dl.gif Разное С. Котельников - Все о строительстве. Водоснабжение и канализация в доме [2012] [PDF] Omen
1 | 0

0 | 541

14

2012-01-25 21:55
Omen Последнее
./templates/default/images/folder_dl.gif Подшивки журналов и газет Подборка | Все о рыбалке [140 книг] (2014) [PDF, DJVU, FB2] Omen
1 | 0

0 | 1203

41

2014-10-20 20:38
Omen Последнее
./templates/default/images/folder_dl.gif Бизнес, Право, Экономика, Финансы Марина Кузьмина | Все о вступлении в наследство (2016) [FB2] Omen
1 | 0

1 | 202

5

2016-07-04 23:27
Dracula Последнее
./templates/default/images/folder_dl.gif Бизнес, Право, Экономика, Финансы Анатолий Белоусов, Никита Королев | Все о заработке в интернете (2015) [FB2, DOCX] [email protected]
1 | 0

0 | 94

3

2016-10-24 23:04
[email protected] Последнее
Показать сообщения:    
Ответить на тему

Текущее время: Сегодня 17:32

Часовой пояс: GMT + 3



Вы не можете начинать темы
Вы не можете отвечать на сообщения
Вы не можете редактировать свои сообщения
Вы не можете удалять свои сообщения
Вы не можете голосовать в опросах
Вы не можете прикреплять файлы к сообщениям
Вы не можете скачивать файлы