Today is a free download without charge Download

Футбол. Суперкубок Англии 2016. Лестер - Манчестер Юнайтед (07.08.2016) [HDTVRip720p 50 fps]

Reply to topic
 
Author
Message

Russian Mafia ®

Gender:

Longevity: 4 years 3 months

Posts: 339

Торрент-статистика

Post 08-Aug-2016 15:57

[Quote]

Футбол. Суперкубок Англии 2016. Лестер - Манчестер Юнайтед (07.08.2016) HDTVRip [H.264/720p-LQ] [hand made 50 fps] - Телекомпания: Матч! Футбол 1 HD

Жанр: Спорт
Язык озвучки: Русский (Александр Елагин)
Описание:
07 августа 2016, воскресенье. 18:00 МСК
Финал
Стадион: Уэмбли (Лондон, Англия) , вместимость: 90000
Главный судья: Крейг Поусон (Южный Йоркшир, Англия)
Ассистент: Стивен Чайлд (Кент, Англия)
Ассистент: Ли Беттс (Англия)
Резервный: Роберт Мэдли (Йоркшир, Англия)
Продолжительность: 01:46:21
Качество видео: HDTVRip
Формат видео: MKV
Автор рипа: CSKAfan
Видео: AVC/H.264, 1280x720, ~4000 Kbps, 50 fps
Аудио: AC3, 2 ch, 128 Kbps

Mediainfo:

Код:
Общее
Уникальный идентификатор                 : 228715016975229703508436219495366462995 (0xAC10E8F5426EA1086A94088B023B0E13)
Полное имя                               : M:\СПОРТ\ФУТБОЛ\АНГЛИЯ\ПРЕМЬЕР-ЛИГА 2016-2017\Футбол. Суперкубок Англии 2016. Лестер Сити – Манчестер Юнайтед HDTVRip 720p.mkv
Формат                                   : Matroska
Версия формата                           : Version 2
Размер файла                             : 3,16 Гбайт
Продолжительность                        : 1 ч. 46 м.
Общий поток                              : 4253 Кбит/сек
Программа кодирования                    : Lavf54.63.104
Библиотека кодирования                   : Lavf54.63.104 / Lavf54.63.104
Видео
Идентификатор                            : 1
Формат                                   : AVC
Формат/Информация                        : Advanced Video Codec
Профиль формата                          : [url=mailto:[email protected]][email protected][/url]
Параметр CABAC формата                   : Да
Параметр ReFrames формата                : 4 кадра
Идентификатор кодека                     : V_MPEG4/ISO/AVC
Продолжительность                        : 1 ч. 46 м.
Битрейт                                  : 4041 Кбит/сек
Ширина                                   : 1280 пикселей
Высота                                   : 720 пикселей
Соотношение сторон                       : 16:9
Режим частоты кадров                     : Постоянный
Частота кадров                           : 50,000 кадров/сек
Цветовое пространство                    : YUV
Субдискретизация насыщенности            : 4:2:0
Битовая глубина                          : 8 бит
Тип развёртки                            : Прогрессивная
Бит/(Пиксели*Кадры)                      : 0.088
Размер потока                            : 3,00 Гбайт (95%)
Default                                  : Нет
Forced                                   : Нет
Аудио
Идентификатор                            : 2
Формат                                   : AC-3
Формат/Информация                        : Audio Coding 3
Расширение режима                        : CM (complete main)
Параметр Endianness формата              : Big
Идентификатор кодека                     : A_AC3
Продолжительность                        : 1 ч. 46 м.
Вид битрейта                             : Постоянный
Битрейт                                  : 128 Кбит/сек
Каналы                                   : 2 канала
Расположение каналов                     : Front: L R
Частота                                  : 48,0 КГц
Частота кадров                           : 31,250 кадров/сек (1536 spf)
Метод сжатия                             : С потерями
Размер потока                            : 97,4 Мбайт (3%)
Язык                                     : Russian
Default                                  : Да
Forced                                   : Нет

Скриншоты

       
Other forum [Profile] [PM]
Display posts from previous:    
Reply to topic

The time now is: Today 01:43

All times are GMT + 3 Hours



You cannot post new topics in this forum
You cannot reply to topics in this forum
You cannot edit your posts in this forum
You cannot delete your posts in this forum
You cannot vote in polls in this forum
You cannot attach files in this forum
You cannot download files in this forum