Today is a free download without charge Download

Они сражались за Родину (Сергей Бондарчук) [1975, Драма, Военный, История, BDRip 1080p]

Reply to topic
 
Author
Message

Russian Mafia ®

Gender:

Longevity: 4 years 11 months

Posts: 337

Торрент-статистика

Post 08-Aug-2016 16:34

[Quote]

Они сражались за Родину (1975) BDRip [H.264/1080p]- Производство: СССР / Мосфильм
Жанр: Драма, Военный, История
Режиссер: Сергей Бондарчук
Актеры: Василий Шукшин, Вячеслав Тихонов, Сергей Бондарчук, Георгий Бурков, Юрий Никулин, Иван Лапиков, Николай Губенко, Андрей Ростоцкий, Николай Волков, Николай Шутько, Евгений Самойлов, Нонна Мордюкова, Лидия Федосеева-Шукшина, Иннокентий Смоктуновский, Татьяна Божок, Ирина Скобцева, Ангелина Степанова
Описание: Июль 1942 года. На подступах к Сталинграду обескровленные, измотанные советские войска ведут тяжелые оборонительные бои, неся огромные потери… Фильм рассказывает о подвиге рядовых солдат, любви к родной земле, об истинной цене победы…

Продолжительность: 02:37:25
Качество видео: BDRip
Перевод: Не требуется
Субтитры: Отсутствуют
Видео: AVC/H.264, 14000 Kbps, 1488x1080
Аудио 1: AC3 5.1, 448 Kbps, 48.0 KHz
Аудио 2: DTS 5.1, 1509 Kbps, 48.0 KHz
Аудио 3: LPCM 1.0, 1152 Kbps, 48.0 KHz

MediaInfo

Код:
Общее
Полное имя                               : Они сражались за Родину (1 Серия).mkv
Формат                                   : Matroska
Версия формата                           : Version 1
Размер файла                             : 9,77 Гбайт
Продолжительность                        : 1 ч. 21 м.
Общий поток                              : 17,1 Мбит/сек
Дата кодирования                         : UTC 2016-07-25 17:19:59
Программа кодирования                    : mkvmerge v2.4.1 ('Use Me') built on Dec  5 2008 18:30:05
Библиотека кодирования                   : libebml v0.7.7 + libmatroska v0.8.1
Видео
Идентификатор                            : 1
Формат                                   : AVC
Формат/Информация                        : Advanced Video Codec
Профиль формата                          : [url=mailto:[email protected]][email protected][/url]
Параметр CABAC формата                   : Да
Параметр ReFrames формата                : 5 кадров
Идентификатор кодека                     : V_MPEG4/ISO/AVC
Продолжительность                        : 1 ч. 21 м.
Номинальный битрейт                      : 14,0 Мбит/сек
Ширина                                   : 1488 пикселей
Высота                                   : 1080 пикселей
Соотношение сторон                       : 1,378
Режим частоты кадров                     : Постоянный
Частота кадров                           : 23,976 (24000/1001) кадра/сек
Цветовое пространство                    : YUV
Субдискретизация насыщенности            : 4:2:0
Битовая глубина                          : 8 бит
Тип развёртки                            : Прогрессивная
Бит/(Пиксели*Кадры)                      : 0.363
Заголовок                                : Они сражались за Родину (1975)
Библиотека кодирования                   : x264 core 148 r2638 7599210
Настройки программы                      : cabac=1 / ref=5 / deblock=1:-3:-3 / analyse=0x3:0x133 / me=umh / subme=10 / psy=1 / psy_rd=1.00:0.10 / mixed_ref=1 / me_range=48 / chroma_me=1 / trellis=2 / 8x8dct=1 / cqm=0 / deadzone=21,11 / fast_pskip=0 / chroma_qp_offset=-3 / threads=6 / lookahead_threads=1 / sliced_threads=0 / nr=0 / decimate=1 / interlaced=0 / bluray_compat=0 / constrained_intra=0 / bframes=5 / b_pyramid=2 / b_adapt=2 / b_bias=0 / direct=3 / weightb=1 / open_gop=0 / weightp=2 / keyint=240 / keyint_min=22 / scenecut=40 / intra_refresh=0 / rc_lookahead=40 / rc=2pass / mbtree=1 / bitrate=14000 / ratetol=1.0 / qcomp=0.60 / qpmin=10 / qpmax=51 / qpstep=4 / cplxblur=20.0 / qblur=0.5 / ip_ratio=1.40 / aq=1:1.00
Язык                                     : Russian
Default                                  : Да
Forced                                   : Нет
Аудио #1
Идентификатор                            : 2
Формат                                   : AC-3
Формат/Информация                        : Audio Coding 3
Расширение режима                        : CM (complete main)
Параметр Endianness формата              : Big
Идентификатор кодека                     : A_AC3
Продолжительность                        : 1 ч. 21 м.
Вид битрейта                             : Постоянный
Битрейт                                  : 448 Кбит/сек
Каналы                                   : 6 каналов
Расположение каналов                     : Front: L C R, Side: L R, LFE
Частота                                  : 48,0 КГц
Частота кадров                           : 31,250 кадров/сек (1536 spf)
Метод сжатия                             : С потерями
Размер потока                            : 262 Мбайт (3%)
Заголовок                                : AC3 (Оригинал)
Язык                                     : Russian
Default                                  : Да
Forced                                   : Нет
Аудио #2
Идентификатор                            : 3
Формат                                   : DTS
Формат/Информация                        : Digital Theater Systems
Режим                                    : 16
Параметр Endianness формата              : Big
Идентификатор кодека                     : A_DTS
Продолжительность                        : 1 ч. 21 м.
Вид битрейта                             : Постоянный
Битрейт                                  : 1509 Кбит/сек
Каналы                                   : 6 каналов
Расположение каналов                     : Front: L C R, Side: L R, LFE
Частота                                  : 48,0 КГц
Частота кадров                           : 93,750 кадра/сек (512 spf)
Битовая глубина                          : 24 бит
Метод сжатия                             : С потерями
Размер потока                            : 882 Мбайт (9%)
Заголовок                                : DTS (Оригинал)
Язык                                     : Russian
Default                                  : Нет
Forced                                   : Нет
Аудио #3
Идентификатор                            : 4
Формат                                   : PCM
Идентификатор кодека                     : A_PCM/INT/LIT
Продолжительность                        : 1 ч. 21 м.
Вид битрейта                             : Постоянный
Каналы                                   : 1 канал
Частота                                  : 48,0 КГц
Битовая глубина                          : 24 бит
Заголовок                                : LPCM (Оригинал)
Язык                                     : Russian
Default                                  : Нет
Forced                                   : Нет

Дополнительная информация

» Во время съёмок большая часть съёмочной группы размещалась на теплоходе «Дунай», который «Мосфильм» арендовал у Ростовского пароходства.
» Шолохов сначала отказал Сергею Бондарчуку экранизировать его роман, но впоследствии согласился.
» Занимает по посещаемости 88-е место среди отечественных фильмов за всю историю советского кинопроката.
» Это был последний фильм Василия Шукшина, во время съемок которого он скончался. Его героя Лопахина озвучивал Игорь Ефимов.
» Лучший фильм по опросу журнала «Советский экран» в 1976 году.
» Фильм снимался к 30-ти летию победы в Великой Отечественной Войне по одноименному незаконченному роману Михаила Шолохова.
» Съёмки фильма стартовали в мае 1974 года на хуторе Мелологовский (Волгоградская область) и продолжались до октября.
» В настоящее время полностью проржавевшее судно доживает свой век на одном из судоремонтных заводов на Дону.
» В ночь на 2 октября 1974 года умер Василий Шукшин. Съемки были приостановлены. Некоторые сцены с участием его героя были досняты в Москве с привлечением дублера.
» Хутор Мелологовский уже не существует, на его месте голая степь.
» Во всех сценах атаки «мессеров» летают реактивные самолеты L-29 Волгоградского УАЦ ДОСААФ.

Скриншоты

       
Other forum [Profile] [PM]
Display posts from previous:    
Reply to topic

The time now is: Today 10:05

All times are GMT + 3 Hours



You cannot post new topics in this forum
You cannot reply to topics in this forum
You cannot edit your posts in this forum
You cannot delete your posts in this forum
You cannot vote in polls in this forum
You cannot attach files in this forum
You cannot download files in this forum