Сегодня идет свободное скачивание без начисления Download

Битва на Перевале Апачей / The Battle at Apache Pass (Джордж Шерман) [1952, Вестерн, DVDRip-AVC] [VO]

Ответить на тему
 
Автор
Сообщение

Russian Mafia ®

Пол:

Стаж: 1 год 7 месяцев

Сообщений: 354

Торрент-статистика

Пост 14-Авг-2016 07:11

[Цитировать]

Производство: США / Universal International Pictures (UI or U-I)
Жанр: Вестерн
Режиссер: Джордж Шерман
Актеры: Джон Ланд, Джефф Чандлер, Сюзан Кэбот, Брюс Коулинг, Беверли Тайлер, Ричард Иган, Джей Сильверхилс, Джон Хадсон, Джек Элам, Режис Туми
Описание:
Майор кавалерии США Джим Колтон поддерживает дружеские отношения с вождем апачей чирикауа — Кочизом. Амбициозный агент по делам индейцев Бейлор намерен выгнать апачей с их земли, и поместить в резервацию Сан-Карлос. Он заключает сделку с врагом Кочиза, вождем моголлонов Джеронимо, который совершает нападение на мирных жителей, похищает сына местного фермера, и оставляет улики против Кочиза. В отсутствии Колтона, Бейлор убеждает лейтенанта Джорджа Баскома в том, что он должен возглавить военный поход против апачей Кочиза, чтобы вернуть мальчика. Поход заканчивается катастрофой, и заложниками, взятыми с обеих сторон. Племена индейцев объединяются и встречаются с войсками Колтона на Перевале Апачей, но индейцы еще не знают, что им придется противостоять современной артиллерии.

Продолжительность: 01:21:28
Качество видео: DVDRip Сэмпл
Перевод: Одноголосый закадровый (NezPerce)
Язык субтитров: Русский
Вид субтитров: Вшитые отключаемые
Видео: AVC/H.264, 720x544, ~1675 Kbps
Аудио 1: AC3, 2 ch, 192 Kbps, 48.0 kHz Русский
Аудио 2: AC3, 2 ch, 192 Kbps, 48.0 kHz Английский

Mediainfo:

Код:
General
Unique ID                                : 226057840303169360134292830268543006113 (0xAA1128088AB6237F8A15C2D07854F5A1)
Complete name                            : F:\Downloads\Битва на Перевале Апачей. 1952. NNMCLUB.mkv
Format                                   : Matroska
Format version                           : Version 4 / Version 2
File size                                : 1.17 GiB
Duration                                 : 1h 21mn
Overall bit rate                         : 2 061 Kbps
Encoded date                             : UTC 2016-08-07 10:51:11
Writing application                      : mkvmerge v7.0.0 ('Where We Going') 32bit built on Jun  9 2014 15:08:34
Writing library                          : libebml v1.3.0 + libmatroska v1.4.1
DURATION                                 : 01:21:15.631000000
NUMBER_OF_FRAMES                         : 697
NUMBER_OF_BYTES                          : 43215
_STATISTICS_WRITING_APP                  : mkvmerge v7.0.0 ('Where We Going') 32bit built on Jun  9 2014 15:08:34
_STATISTICS_WRITING_DATE_UTC             : 2016-08-07 10:51:11
_STATISTICS_TAGS                         : BPS DURATION NUMBER_OF_FRAMES NUMBER_OF_BYTES
Video
ID                                       : 1
Format                                   : AVC
Format/Info                              : Advanced Video Codec
Format profile                           : [url=mailto:[email protected]][email protected][/url]
Format settings, CABAC                   : Yes
Format settings, ReFrames                : 8 frames
Codec ID                                 : V_MPEG4/ISO/AVC
Duration                                 : 1h 21mn
Bit rate                                 : 1 675 Kbps
Width                                    : 720 pixels
Height                                   : 544 pixels
Display aspect ratio                     : 4:3
Frame rate mode                          : Constant
Frame rate                               : 25.000 fps
Color space                              : YUV
Chroma subsampling                       : 4:2:0
Bit depth                                : 8 bits
Scan type                                : Progressive
Bits/(Pixel*Frame)                       : 0.171
Stream size                              : 953 MiB (79%)
Title                                    : The Battle at Apache Pass
Writing library                          : x264 core 125 r2208 d9d2288
Encoding settings                        : cabac=1 / ref=8 / deblock=1:-1:-1 / analyse=0x3:0x133 / me=umh / subme=9 / psy=1 / psy_rd=1.00:0.10 / mixed_ref=1 / me_range=32 / chroma_me=1 / trellis=2 / 8x8dct=1 / cqm=0 / deadzone=21,11 / fast_pskip=0 / chroma_qp_offset=-3 / threads=6 / lookahead_threads=1 / sliced_threads=0 / nr=0 / decimate=1 / interlaced=0 / bluray_compat=0 / constrained_intra=0 / bframes=3 / b_pyramid=2 / b_adapt=2 / b_bias=0 / direct=3 / weightb=1 / open_gop=0 / weightp=2 / keyint=250 / keyint_min=25 / scenecut=40 / intra_refresh=0 / rc_lookahead=60 / rc=2pass / mbtree=1 / bitrate=1675 / ratetol=1.0 / qcomp=0.60 / qpmin=0 / qpmax=69 / qpstep=4 / cplxblur=20.0 / qblur=0.5 / ip_ratio=1.40 / aq=1:1.00
Language                                 : English
Default                                  : Yes
Forced                                   : No
Audio #1
ID                                       : 2
Format                                   : AC-3
Format/Info                              : Audio Coding 3
Mode extension                           : CM (complete main)
Format settings, Endianness              : Big
Codec ID                                 : A_AC3
Duration                                 : 1h 21mn
Bit rate mode                            : Constant
Bit rate                                 : 192 Kbps
Channel(s)                               : 2 channels
Channel positions                        : Front: L R
Sampling rate                            : 48.0 KHz
Bit depth                                : 16 bits
Compression mode                         : Lossy
Stream size                              : 112 MiB (9%)
Title                                    : Одноголосый закадровый
Language                                 : Russian
Default                                  : Yes
Forced                                   : No
Audio #2
ID                                       : 3
Format                                   : AC-3
Format/Info                              : Audio Coding 3
Mode extension                           : CM (complete main)
Format settings, Endianness              : Big
Codec ID                                 : A_AC3
Duration                                 : 1h 21mn
Bit rate mode                            : Constant
Bit rate                                 : 192 Kbps
Channel(s)                               : 2 channels
Channel positions                        : Front: L R
Sampling rate                            : 48.0 KHz
Bit depth                                : 16 bits
Compression mode                         : Lossy
Stream size                              : 112 MiB (9%)
Title                                    : Оригинал
Language                                 : English
Default                                  : No
Forced                                   : No
Text
ID                                       : 4
Format                                   : UTF-8
Codec ID                                 : S_TEXT/UTF8
Codec ID/Info                            : UTF-8 Plain Text
Title                                    : SRT
Language                                 : Russian
Default                                  : No
Forced                                   : No
Скриншоты:
       

Дополнительные скриншоты:

       
Вне форума [Профиль] [ЛС]
Похожие темы
Форум Тема Автор Торрент Отв. Посл. сообщение
./templates/default/images/folder_dl.gif Фильмы 2011-2016 Битва за Севастополь (Сергей Мокрицкий) [2015 г., военный, боевик, мелодрама, драма, DVDRip-AVC] Russian Mafia
1 | 0

1 | 868

56

2016-01-02 08:27
Dracula Последнее
Показать сообщения:    
Ответить на тему

Текущее время: Сегодня 17:32

Часовой пояс: GMT + 3



Вы не можете начинать темы
Вы не можете отвечать на сообщения
Вы не можете редактировать свои сообщения
Вы не можете удалять свои сообщения
Вы не можете голосовать в опросах
Вы не можете прикреплять файлы к сообщениям
Вы не можете скачивать файлы