Сегодня идет свободное скачивание без начисления Download

Диллинджер / Dillinger (Джон Милиус) [1973, Боевик, драма, криминал, биография, BDRip-AVC]

Ответить на тему
 
Автор
Сообщение

Russian Mafia ®

Пол:

Стаж: 1 год 7 месяцев

Сообщений: 354

Торрент-статистика

Пост 14-Авг-2016 18:04

[Цитировать]

Производство: США / American International Pictures (AIP)
Жанр: Боевик, Драма, Криминал, Биография
Режиссер: Джон Милиус
Актеры: Уоррен Оутс, Бен Джонсон, Мишель Филлипс, Клорис Личмен, Гарри Дин Стэнтон, Джеффри Льюис, Джон П. Райан, Ричард Дрейфусс, Стив Кэнэли, Джон Мартино, Рой Дженсон, Рид Морган, Фрэнк МакРей, Дэвид Дорр, Роланд Боб Харрис
Описание: Действие фильма охватывает период с июня 1933 по июль 1934 гг. и рассказывает о судьбе знаменитого гангстера Джона Герберта Диллинджера, грабившего банки на Среднем Западе США. В центре сюжета - противостояние Диллинджера и специального агента ФБР Мэлвина Пёрвиса.

Продолжительность: 01:47:20
Качество видео: BDRip
Перевод: Профессиональный (многоголосый закадровый)
Вид субтитров: Вшитые, отключаемые
Язык субтитров: Русский, Английский
Видео: AVC/H.264, 2300 Kbps, 1024x554
Аудио 1: AC3 2.0, 192 Kbps, 48.0 KHz - Русский (MVO, Пятый канал)
Аудио 2: AC3 1.0, 384 Kbps, 48.0 KHz - Английский (Оригинал)

MediaInfo

Код:
Общее
Полное имя                               : Диллинджер.mkv
Формат                                   : Matroska
Версия формата                           : Version 4 / Version 2
Размер файла                             : 2,18 Гбайт
Продолжительность                        : 1 ч. 47 м.
Общий поток                              : 2904 Кбит/сек
Дата кодирования                         : UTC 2016-07-26 14:14:01
Программа кодирования                    : mkvmerge v9.2.0 ('Photograph') 32bit
Библиотека кодирования                   : libebml v1.3.3 + libmatroska v1.4.4
Видео
Идентификатор                            : 1
Формат                                   : AVC
Формат/Информация                        : Advanced Video Codec
Профиль формата                          : [url=mailto:[email protected]][email protected][/url]
Параметр CABAC формата                   : Да
Параметр ReFrames формата                : 10 кадров
Идентификатор кодека                     : V_MPEG4/ISO/AVC
Продолжительность                        : 1 ч. 47 м.
Битрейт                                  : 2300 Кбит/сек
Ширина                                   : 1024 пикселя
Высота                                   : 554 пикселя
Соотношение сторон                       : 1,85:1
Режим частоты кадров                     : Постоянный
Частота кадров                           : 23,976 (24000/1001) кадра/сек
Цветовое пространство                    : YUV
Субдискретизация насыщенности            : 4:2:0
Битовая глубина                          : 8 бит
Тип развёртки                            : Прогрессивная
Бит/(Пиксели*Кадры)                      : 0.169
Размер потока                            : 1,72 Гбайт (79%)
Заголовок                                : Диллинджер (1973)
Библиотека кодирования                   : x264 core 148 r2638 7599210
Настройки программы                      : cabac=1 / ref=10 / deblock=1:-3:-3 / analyse=0x3:0x133 / me=umh / subme=10 / psy=1 / psy_rd=1.00:0.10 / mixed_ref=1 / me_range=48 / chroma_me=1 / trellis=2 / 8x8dct=1 / cqm=0 / deadzone=21,11 / fast_pskip=0 / chroma_qp_offset=-3 / threads=6 / lookahead_threads=1 / sliced_threads=0 / nr=0 / decimate=1 / interlaced=0 / bluray_compat=0 / constrained_intra=0 / bframes=5 / b_pyramid=2 / b_adapt=2 / b_bias=0 / direct=3 / weightb=1 / open_gop=0 / weightp=2 / keyint=240 / keyint_min=22 / scenecut=40 / intra_refresh=0 / rc_lookahead=40 / rc=2pass / mbtree=1 / bitrate=2300 / ratetol=1.0 / qcomp=0.60 / qpmin=10 / qpmax=51 / qpstep=4 / cplxblur=20.0 / qblur=0.5 / ip_ratio=1.40 / aq=1:1.00
Язык                                     : English
Default                                  : Нет
Forced                                   : Нет
Аудио #1
Идентификатор                            : 2
Формат                                   : AC-3
Формат/Информация                        : Audio Coding 3
Расширение режима                        : CM (complete main)
Параметр Endianness формата              : Big
Идентификатор кодека                     : A_AC3
Продолжительность                        : 1 ч. 47 м.
Вид битрейта                             : Постоянный
Битрейт                                  : 192 Кбит/сек
Каналы                                   : 2 канала
Расположение каналов                     : Front: L R
Частота                                  : 48,0 КГц
Частота кадров                           : 31,250 кадров/сек (1536 spf)
Метод сжатия                             : С потерями
Размер потока                            : 147 Мбайт (7%)
Заголовок                                : AC3 (Многоголосый) Пятый канал
Язык                                     : Russian
Default                                  : Да
Forced                                   : Нет
Аудио #2
Идентификатор                            : 3
Формат                                   : AC-3
Формат/Информация                        : Audio Coding 3
Расширение режима                        : CM (complete main)
Параметр Endianness формата              : Big
Идентификатор кодека                     : A_AC3
Продолжительность                        : 1 ч. 47 м.
Вид битрейта                             : Постоянный
Битрейт                                  : 384 Кбит/сек
Каналы                                   : 1 канал
Расположение каналов                     : Front: C
Частота                                  : 48,0 КГц
Частота кадров                           : 31,250 кадров/сек (1536 spf)
Метод сжатия                             : С потерями
Размер потока                            : 295 Мбайт (13%)
Заголовок                                : AC3 (Оригинал)
Язык                                     : English
Default                                  : Нет
Forced                                   : Нет
Текст #1
Идентификатор                            : 4
Формат                                   : PGS
Режим смешивания                         : zlib
Идентификатор кодека                     : S_HDMV/PGS
Идентификатор кодека/Информация          : Picture based subtitle format used on BDs/HD-DVDs
Продолжительность                        : 1 ч. 47 м.
Битрейт                                  : 18,5 Кбит/сек
Count of elements                        : 1916
Размер потока                            : 14,2 Мбайт (1%)
Заголовок                                : Русские
Язык                                     : Russian
Default                                  : Нет
Forced                                   : Нет
Текст #2
Идентификатор                            : 5
Формат                                   : PGS
Режим смешивания                         : zlib
Идентификатор кодека                     : S_HDMV/PGS
Идентификатор кодека/Информация          : Picture based subtitle format used on BDs/HD-DVDs
Продолжительность                        : 1 ч. 47 м.
Битрейт                                  : 7580 бит/сек
Count of elements                        : 2078
Размер потока                            : 5,81 Мбайт (0%)
Заголовок                                : Английские
Язык                                     : English
Default                                  : Нет
Forced                                   : Нет

Дополнительная информация

» Фильм стал режиссёрским дебютом Джона Милиуса, к тому времени имевшему опыт сценариста в таких фильмах, как «Грязный Гарри» и «Жизнь и времена судьи Роя Бина».
» Уоррен Оутс и Бен Джонсон ранее сыграли вместе в фильме Сэма Пекинпа «Дикая банда». Оутс, сыгравший Диллинджера, внешне очень похож на него, однако, намного старше своего героя (Диллинджеру, когда он погиб, был тридцать один год, Оутсу во время съёмок фильма — сорок пять). Видимо, поэтому и для роли Мелвина Пёрвиса, ровесника Диллинджера, был выбран достаточно пожилой Бен Джонсон (1918 года рождения, т. о. во время съемок фильма ему было более пятидесяти лет). Роль подруги Диллинджера сыграла певица Мишель Филлипс — участница группы «Mamas & Papas».

Скриншоты

       
Вне форума [Профиль] [ЛС]
Показать сообщения:    
Ответить на тему

Текущее время: Сегодня 08:56

Часовой пояс: GMT + 3



Вы не можете начинать темы
Вы не можете отвечать на сообщения
Вы не можете редактировать свои сообщения
Вы не можете удалять свои сообщения
Вы не можете голосовать в опросах
Вы не можете прикреплять файлы к сообщениям
Вы не можете скачивать файлы