Today is a free download without charge Download

Операция «Горгона» / Серии: 1-4 из 4 (Владимир Котт) [2011, боевик, драма, военный, WEBRip (1080p)]

Reply to topic
 
Author
Message

Omen ®

Longevity: 8 years 2 months

Posts: 181087

Торрент-статистика

Post 18-Aug-2016 01:00

[Quote]

Операция «Горгона»- -Год выпуска: 2011
Производство: "Централ Партнершип"
Жанр: боевик, драма, военный
Продолжительность: 00:45:00
Субтитры: нет-Режиссёр: Владимир Котт-В ролях:
Алексей Кравченко, Екатерина Федулова, Александр Лымарев, Сергей Давыдов, Александр Ильин ст., Алексей Миночкин, Борис Невзоров, Леонид Громов, Олег Демидов, Анатолий Кот, Сергей Беляев, Валерий Афанасьев, Валерий Иваков, Алексей Чагин, Николай Юшкевич, Всеволод Спасибо, Сергей Бачурский, Алексей Крыченков, Павел Галич, Дмитрий Богдан, Михаил Горский, Антон Никушин, Дмитрий Митин, Александр Денисов (III), Николай Исаков, Павел Ващилин, Валентина Березуцкая, Константин Пояркин, Лев Борисов, Денис Надточий, Виталий Быков, Евгений Штырбул, Рудольф Панков, Сергей Афоничев-Описание:
Закончилась Сталинградская битва. Советская Армия готовит широкомасштабную Белорусскую стратегическую наступательную операцию под кодовым названием «Багратион». За неделю до начала операции становится известно, что немцы заминировали все подступы к городу N. Заминированы дороги, мосты, леса. Они создали целые минные поля. Тотально заминирован и сам город. Могут пострадать мирные жители. В штаб армии вызывают опытного разведчика Тишкова. Федор Тишков — бывший цирковой артист, выступавший когда-то с силовыми номерами, получает новое задание.
Группе Тишкова необходимо в течение трех дней похитить карту минирования под кодовым названием «Горгона». Если задание не будет выполнено, то погибнут мирные жители, будут потери и среди наших солдат. Москва требует, чтобы наступление началось в четко обозначенные им сроки. Тишков и члены его группы, бывшие цирковые артисты, забрасываются в тыл к немцам…--Возраст: 16+-Качество: WEBRip (1080p)
Формат: MKV
Видео кодек: AVC
Аудио кодек: AC3

Видео: AVC, 1920 х 1080 (16:9), 25,000 кадр/сек, 2 776 Кбит/сек, 0.054 bit/pixel
Аудио: AC3, 41000 Hz, 192 Kbps, 2 канала
-

MediaInfo

General
Unique ID : 82911158491162592950379048353428766302 (0x3E601BB8A4E90911E7C4E43473E97E5E)
Complete name : D:\Раздачи\Операция Горгона (1-4 серии из 4) WEB-DL (1080p)\03.Operacija.Gorgona.2011.WEB-DL.1080..Files-x.mkv
Format : Matroska
Format version : Version 4 / Version 2
File size : 1 003 MiB
Duration : 46mn 18s
Overall bit rate : 3 028 Kbps
Writing application : Lavf56.25.101
Writing library : Lavf56.25.101 / Lavf56.25.101
Video
ID : 1
Format : AVC
Format/Info : Advanced Video Codec
Format profile : [email protected]
Format settings, CABAC : Yes
Format settings, ReFrames : 2 frames
Codec ID : V_MPEG4/ISO/AVC
Duration : 46mn 18s
Bit rate : 2 776 Kbps
Width : 1 920 pixels
Height : 1 080 pixels
Display aspect ratio : 16:9
Frame rate mode : Constant
Frame rate : 25.000 fps
Color space : YUV
Chroma subsampling : 4:2:0
Bit depth : 8 bits
Scan type : Progressive
Bits/(Pixel*Frame) : 0.054
Stream size : 919 MiB (92%)
Default : Yes
Forced : No
Color range : Limited
Color primaries : BT.709
Transfer characteristics : BT.709
Matrix coefficients : BT.709
Audio
ID : 2
Format : AC-3
Format/Info : Audio Coding 3
Mode extension : CM (complete main)
Format settings, Endianness : Big
Codec ID : A_AC3
Duration : 46mn 18s
Bit rate mode : Constant
Bit rate : 192 Kbps
Channel(s) : 2 channels
Channel positions : Front: L R
Sampling rate : 44.1 KHz
Frame rate : 28.711 fps (1536 spf)
Compression mode : Lossy
Delay relative to video : -40ms
Stream size : 63.6 MiB (6%)
Default : Yes
Forced : No
-

Скриншоты сериала


-Раздаю до первых 5-ти скачавших, на раздачи не возвращаюсь...-
Other forum [Profile] [PM]
Display posts from previous:    
Reply to topic

The time now is: Today 07:35

All times are GMT + 3 Hours



You cannot post new topics in this forum
You cannot reply to topics in this forum
You cannot edit your posts in this forum
You cannot delete your posts in this forum
You cannot vote in polls in this forum
You cannot attach files in this forum
You cannot download files in this forum