Today is a free download without charge Download

(Surf, Exotic Surf, Exotic Lounge, Spy Jazz) [CD] The Islanders - The Enchanted Sound of the Islanders - 2016, FLAC (image+.cue), lossless

Reply to topic
 
Author
Message

Omen ®

Longevity: 7 years 1 month

Posts: 181090

Торрент-статистика

Post 20-Aug-2016 01:01

[Quote]

The Islanders
The Enchanted Sound of the Islanders
- Жанр: Surf, Exotic Surf, Exotic Lounge, Spy Jazz
Носитель: CD
Страна-производитель диска (релиза): USA
Год издания: 2016
Страна исполнителя (группы): USA
Аудиокодек: FLAC (*.flac)
Тип рипа: image+.cue
Битрейт аудио: lossless
Продолжительность: 31:09
Источник (релизер):
Наличие сканов в содержимом раздачи: да-
01. The Enchanted Sea (2:04)
02. The Breeze and I (2:50)
03. Blue Rain (2:09)
04. Tramp Steamer (2:16)
05. Sleepy Lagoon (2:36)
06. Paradise Lost (2:34)
07. Autumn Leaves (3:09)
08. Kon-Tiki (2:28)
09. Dreamer (2:02)
10. Tornado (2:03)
11. Blue Tango (2:15)
12. City Under the Sea (2:43)
Bonus Track
13. Forbidden Island (1:59)-

Лог создания рипа

Exact Audio Copy V1.0 beta 3 from 29. August 2011
Отчёт EAC об извлечении, выполненном 19. августа 2016, 12:47
The Islanders / The Enchanted Sound of the Islanders
Дисковод: PLEXTOR DVDR PX-880SA Adapter: 1 ID: 0
Режим чтения : ДостоверностьИспользование точного потока : ДаОтключение кэша аудио : ДаИспользование указателей C2 : Нет
Коррекция смещения при чтении : 6Способность читать области Lead-in и Lead-out : НетЗаполнение пропущенных сэмплов тишиной : ДаУдаление блоков с тишиной в начале и конце : НетПри вычислениях CRC использовались нулевые сэмплы : ДаИнтерфейс : Установленный внешний ASPI-интерфейс
Выходной формат : Пользовательский кодировщикВыбранный битрейт : 1024 kBit/sКачество : ВысокийДобавление ID3-тега : НетУтилита сжатия : C:\Program Files\Exact Audio Copy\FLAC\FLAC.EXEДополнительные параметры : -8 -V -T "ARTIST=%artist%" -T "ALBUM=%albumtitle%" -T "DATE=%year%" -T "GENRE=%genre%" -T "COMMENT=ripped by izia1956" %source%
TOC извлечённого CD
Трек | Старт | Длительность | Начальный сектор | Конечный сектор --------------------------------------------------------------------- 1 | 0:00.00 | 2:04.06 | 0 | 9305 2 | 2:04.06 | 2:49.69 | 9306 | 22049 3 | 4:54.00 | 2:08.47 | 22050 | 31696 4 | 7:02.47 | 2:15.64 | 31697 | 41885 5 | 9:18.36 | 2:36.27 | 41886 | 53612 6 | 11:54.63 | 2:34.30 | 53613 | 65192 7 | 14:29.18 | 3:08.60 | 65193 | 79352 8 | 17:38.03 | 2:28.28 | 79353 | 90480 9 | 20:06.31 | 2:01.72 | 90481 | 99627 10 | 22:08.28 | 2:03.26 | 99628 | 108878 11 | 24:11.54 | 2:15.31 | 108879 | 119034 12 | 26:27.10 | 2:42.43 | 119035 | 131227 13 | 29:09.53 | 1:59.32 | 131228 | 140184
Характеристики диапазона извлечения и сообщения об ошибках
Выбранный диапазон
Имя файла D:\BitComet\The Islanders - The Enchanted Sound of the Islanders (2016)(flac)\The Islanders - The Enchanted Sound of the Islanders.wav
Пиковый уровень 89.8 % Скорость извлечения 2.8 X Качество диапазона 99.9 % CRC теста 0CC96DA9 CRC копии 0CC96DA9 Копирование... OK
Ошибок не произошло
AccurateRip: сводка
Трек 1 отсутствует в базе данныхТрек 2 отсутствует в базе данныхТрек 3 отсутствует в базе данныхТрек 4 отсутствует в базе данныхТрек 5 отсутствует в базе данныхТрек 6 отсутствует в базе данныхТрек 7 отсутствует в базе данныхТрек 8 отсутствует в базе данныхТрек 9 отсутствует в базе данныхТрек 10 отсутствует в базе данныхТрек 11 отсутствует в базе данныхТрек 12 отсутствует в базе данныхТрек 13 отсутствует в базе данных
Ни одного трека нет в базе AccurateRip
Конец отчёта
==== Контрольная сумма отчёта 9CBFC4B8EF9153ADB2BCCC2962B71DAD0D78982FEFA00E8DE178840BFD15ECDF ====

Содержание индексной карты (.CUE)

REM GENRE SurfREM DATE 2016REM DISCID 9A074D0DREM COMMENT "ExactAudioCopy v1.0b3"PERFORMER "The Islanders"TITLE "The Enchanted Sound of the Islanders"FILE "The Islanders - The Enchanted Sound of the Islanders.flac" WAVE TRACK 01 AUDIO TITLE "The Enchanted Sea" PERFORMER "The Islanders" INDEX 01 00:00:00 TRACK 02 AUDIO TITLE "The Breeze and I" PERFORMER "The Islanders" INDEX 01 02:04:06 TRACK 03 AUDIO TITLE "Blue Rain" PERFORMER "The Islanders" INDEX 01 04:54:00 TRACK 04 AUDIO TITLE "Tramp Steamer" PERFORMER "The Islanders" INDEX 01 07:02:47 TRACK 05 AUDIO TITLE "Sleepy Lagoon" PERFORMER "The Islanders" INDEX 01 09:18:36 TRACK 06 AUDIO TITLE "Paradise Lost" PERFORMER "The Islanders" INDEX 01 11:54:63 TRACK 07 AUDIO TITLE "Autumn Leaves" PERFORMER "The Islanders" INDEX 01 14:29:18 TRACK 08 AUDIO TITLE "Kon-Tiki" PERFORMER "The Islanders" INDEX 01 17:38:03 TRACK 09 AUDIO TITLE "Dreamer" PERFORMER "The Islanders" INDEX 01 20:06:31 TRACK 10 AUDIO TITLE "Tornado" PERFORMER "The Islanders" INDEX 01 22:08:28 TRACK 11 AUDIO TITLE "Blue Tango" PERFORMER "The Islanders" INDEX 01 24:11:54 TRACK 12 AUDIO TITLE "City Under the Sea" PERFORMER "The Islanders" INDEX 01 26:27:10 TRACK 13 AUDIO TITLE "Forbidden Island (Bonus Track)" PERFORMER "The Islanders" INDEX 01 29:09:53
Доп. информация: Рип сделан собственноручно с оригинального СД!!!
Сканы в папке
Ознакомиться (прослушать) можно здесь
PS. Сейчас такую музыку не пишут и не играют!
Рип от ©СЁРФ-Маrаtones aka
Other forum [Profile] [PM]
Display posts from previous:    
Reply to topic

The time now is: Today 18:48

All times are GMT + 3 Hours



You cannot post new topics in this forum
You cannot reply to topics in this forum
You cannot edit your posts in this forum
You cannot delete your posts in this forum
You cannot vote in polls in this forum
You cannot attach files in this forum
You cannot download files in this forum