Today is a free download without charge Download

Владимир Высоцкий - Новое звучание (2007) 10CD Box Set [FLAC|Lossless|image + .cue]<Авторская песня>

Reply to topic
 
Author
Message

XP1971 ®

Торрент-статистика

Post 21-Aug-2016 20:28

[Quote]

Владимир Высоцкий - Новое звучание (2007) 10CD Box Set - Год: 2007
Жанр: Авторская песня
Издание: Astra Records
Источник (релизер): eloychik ®
Продолжительность: 09:29:25
Кодек: FLAC
Битрейт: Lossless
Тип рипа: image + .cue

CD01 - Чуть помедленнее,кони...

Треклист:
01. Лошадей двадцать тысяч в машины зажаты...
02. Скалолазка
03. Вершина
04. Песенка о переселении душ
05. Белое безмолвие
06. Очи черные. I. Погоня
07. Очи черные. II. Старый дом
08. Чужая колея
09. Весна еще в начале
10. Песня-сказка про джина
11. Свой остров
12. Эй, шофер, вези – Бутырский хутор...
13. Я несла свою беду...
14. Татуировка
15. Притча о правде и лжи
16. Поездка в город
17. Я из дела ушел
18. Цыганская песня
19. Песня про случай
20. Горизонт
21. Кони привередливые
Продолжительность: 01:00:12

Отчёт ЕАС&#58;

Код:
Exact Audio Copy V1.0 beta 3 from 29. August 2011
Отчёт EAC об извлечении, выполненном 19. августа 2016, 8:58
Владимир Высоцкий / Чуть Помедленнее, Кони...
Дисковод: ASUS    DRW-24B3ST   Adapter: 3  ID: 0
Режим чтения                 : Достоверность
Использование точного потока : Да
Отключение кэша аудио        : Да
Использование указателей C2  : Нет
Коррекция смещения при чтении                     : 6
Способность читать области Lead-in и Lead-out     : Нет
Заполнение пропущенных сэмплов тишиной            : Да
Удаление блоков с тишиной в начале и конце        : Нет
При вычислениях CRC использовались нулевые сэмплы : Да
Интерфейс                                         : Встроенный Win32-интерфейс для Win NT/2000
Выходной формат          : Пользовательский кодировщик
Выбранный битрейт        : 128 kBit/s
Качество                 : Высокий
Добавление ID3-тега      : Нет
Утилита сжатия           : C:\Program Files (x86)\Exact Audio Copy\Flac\flac.exe
Дополнительные параметры :  -V -8 -T "Date=%year%" -T "Genre=%genre%" %source%
TOC извлечённого CD
     Трек |   Старт  | Длительность | Начальный сектор | Конечный сектор
    ---------------------------------------------------------------------
       1  |  0:00.00 |    3:06.49   |           0      |      13998
       2  |  3:06.49 |    2:12.44   |       13999      |      23942
       3  |  5:19.18 |    2:27.69   |       23943      |      35036
       4  |  7:47.12 |    2:22.05   |       35037      |      45691
       5  | 10:09.17 |    2:19.68   |       45692      |      56184
       6  | 12:29.10 |    3:12.37   |       56185      |      70621
       7  | 15:41.47 |    3:04.24   |       70622      |      84445
       8  | 18:45.71 |    3:27.51   |       84446      |     100021
       9  | 22:13.47 |    2:11.30   |      100022      |     109876
      10  | 24:25.02 |    3:08.24   |      109877      |     124000
      11  | 27:33.26 |    2:07.18   |      124001      |     133543
      12  | 29:40.44 |    1:23.10   |      133544      |     139778
      13  | 31:03.54 |    2:51.64   |      139779      |     152667
      14  | 33:55.43 |    2:10.10   |      152668      |     162427
      15  | 36:05.53 |    5:10.68   |      162428      |     185745
      16  | 41:16.46 |    2:49.68   |      185746      |     198488
      17  | 44:06.39 |    2:23.12   |      198489      |     209225
      18  | 46:29.51 |    1:37.65   |      209226      |     216565
      19  | 48:07.41 |    3:40.03   |      216566      |     233068
      20  | 51:47.44 |    3:11.46   |      233069      |     247439
      21  | 54:59.15 |    5:12.12   |      247440      |     270851
Характеристики диапазона извлечения и сообщения об ошибках
Выбранный диапазон
     Имя файла E:\РАЗДАЧИ\NNMClub-eloychik ®\Владимир Высоцкий - Новое звучание!!! [NNMClub.to]\CD1 - Чуть помедленнее,кони\Владимир Высоцкий - Чуть Помедленнее, Кони....wav
     Пиковый уровень 96.5 %
     Скорость извлечения 1.9 X
     Качество диапазона 100.0 %
     CRC теста D2791A7F
     CRC копии D2791A7F
     Копирование... OK
Ошибок не произошло
AccurateRip: сводка
Трек  1  точность не определена (достоверность 2)  [3176E0C8], AccurateRip вернул [EDE829F4]  (AR v2)
Трек  2  точность не определена (достоверность 1)  [3E6CABA1], AccurateRip вернул [DB09713B]  (AR v2)
Трек  3  точность не определена (достоверность 1)  [A07AFBA7], AccurateRip вернул [B0DC5813]  (AR v2)
Трек  4  точность не определена (достоверность 1)  [4C4AE431], AccurateRip вернул [287CF539]  (AR v2)
Трек  5  точность не определена (достоверность 1)  [70BD52B2], AccurateRip вернул [3529AD5A]  (AR v2)
Трек  6  точность не определена (достоверность 1)  [272CB4D0], AccurateRip вернул [73055A61]  (AR v2)
Трек  7  точность не определена (достоверность 1)  [4596428D], AccurateRip вернул [91CC66F4]  (AR v2)
Трек  8  точность не определена (достоверность 1)  [9F011813], AccurateRip вернул [A6995571]  (AR v2)
Трек  9  точность не определена (достоверность 1)  [C29D9FB1], AccurateRip вернул [39E7E889]  (AR v2)
Трек 10  точность не определена (достоверность 1)  [495E2F13], AccurateRip вернул [B593A19F]  (AR v2)
Трек 11  точность не определена (достоверность 1)  [85C9CFAC], AccurateRip вернул [36E4F037]  (AR v2)
Трек 12  точность не определена (достоверность 1)  [D3A71721], AccurateRip вернул [71DEC8C8]  (AR v2)
Трек 13  точность не определена (достоверность 1)  [4B5667FB], AccurateRip вернул [44471A49]  (AR v2)
Трек 14  точность не определена (достоверность 1)  [6774DA12], AccurateRip вернул [8D6FF11F]  (AR v2)
Трек 15  точность не определена (достоверность 1)  [AA074697], AccurateRip вернул [33412975]  (AR v2)
Трек 16  точность не определена (достоверность 1)  [A98C7972], AccurateRip вернул [DDF50673]  (AR v2)
Трек 17  точность не определена (достоверность 1)  [9A2BABF8], AccurateRip вернул [5143227B]  (AR v2)
Трек 18  точность не определена (достоверность 1)  [E2EE604D], AccurateRip вернул [8F2D7FBC]  (AR v2)
Трек 19  точность не определена (достоверность 1)  [ADFC0FEB], AccurateRip вернул [0F328953]  (AR v2)
Трек 20  точность не определена (достоверность 1)  [B6CE4474], AccurateRip вернул [CAC89ADD]  (AR v2)
Трек 21  точность не определена (достоверность 1)  [0954D811], AccurateRip вернул [8863A708]  (AR v2)
Ни один трек не прошёл проверки на точность
В вашей базе может быть иной вариант штамповки диска
Конец отчёта
==== Контрольная сумма отчёта 6660995B1E0666D43DF3FA0EE477509EE19854B6EFC248AC2D168E32FF1C7768 ====

Cue Sheet (.cue&#41;&#58;

Код:
REM GENRE Chanson
REM DATE 2004
REM DISCID 390E1B15
REM COMMENT "ExactAudioCopy v1.0b3"
PERFORMER "Владимир Высоцкий"
TITLE "Чуть Помедленнее, Кони..."
FILE "Владимир Высоцкий - Чуть Помедленнее, Кони....flac" WAVE
  TRACK 01 AUDIO
    TITLE "Лошадей Двадцать Тысяч В Машины Зажаты..."
    PERFORMER "Владимир Высоцкий"
    FLAGS DCP
    INDEX 01 00:00:00
  TRACK 02 AUDIO
    TITLE "Скалолазка"
    PERFORMER "Владимир Высоцкий"
    FLAGS DCP
    INDEX 01 03:06:49
  TRACK 03 AUDIO
    TITLE "Здесь Вам Не Равнина"
    PERFORMER "Владимир Высоцкий"
    FLAGS DCP
    INDEX 01 05:19:18
  TRACK 04 AUDIO
    TITLE "Песенка О Переселении Душ"
    PERFORMER "Владимир Высоцкий"
    FLAGS DCP
    INDEX 01 07:47:12
  TRACK 05 AUDIO
    TITLE "Белое Безмолвие"
    PERFORMER "Владимир Высоцкий"
    FLAGS DCP
    INDEX 01 10:09:17
  TRACK 06 AUDIO
    TITLE "Очи Чёрные - I. Погоня"
    PERFORMER "Владимир Высоцкий"
    FLAGS DCP
    INDEX 01 12:29:10
  TRACK 07 AUDIO
    TITLE "Очи Чёрные - II. Старый Дом"
    PERFORMER "Владимир Высоцкий"
    FLAGS DCP
    INDEX 01 15:41:47
  TRACK 08 AUDIO
    TITLE "Чужая Колея"
    PERFORMER "Владимир Высоцкий"
    FLAGS DCP
    INDEX 01 18:45:71
  TRACK 09 AUDIO
    TITLE "Весна Ещё В Начале"
    PERFORMER "Владимир Высоцкий"
    FLAGS DCP
    INDEX 01 22:13:47
  TRACK 10 AUDIO
    TITLE "Песня-Сказка Про Джинна"
    PERFORMER "Владимир Высоцкий"
    FLAGS DCP
    INDEX 01 24:25:02
  TRACK 11 AUDIO
    TITLE "Свой Остров"
    PERFORMER "Владимир Высоцкий"
    FLAGS DCP
    INDEX 01 27:33:26
  TRACK 12 AUDIO
    TITLE "Эй, Шофер, Вези - Бутырский Хутор..."
    PERFORMER "Владимир Высоцкий"
    FLAGS DCP
    INDEX 01 29:40:44
  TRACK 13 AUDIO
    TITLE "Я Несла Свою Беду..."
    PERFORMER "Владимир Высоцкий"
    FLAGS DCP
    INDEX 01 31:03:54
  TRACK 14 AUDIO
    TITLE "Татуировка"
    PERFORMER "Владимир Высоцкий"
    FLAGS DCP
    INDEX 01 33:55:43
  TRACK 15 AUDIO
    TITLE "Притча О Правде И Лжи"
    PERFORMER "Владимир Высоцкий"
    FLAGS DCP
    INDEX 01 36:05:53
  TRACK 16 AUDIO
    TITLE "Поездка В Город"
    PERFORMER "Владимир Высоцкий"
    FLAGS DCP
    INDEX 01 41:16:46
  TRACK 17 AUDIO
    TITLE "Я Из Дела Ушёл"
    PERFORMER "Владимир Высоцкий"
    FLAGS DCP
    INDEX 01 44:06:39
  TRACK 18 AUDIO
    TITLE "Цыганская Песня (Из К/Ф 'Опасные Гастроли')"
    PERFORMER "Владимир Высоцкий"
    FLAGS DCP
    INDEX 01 46:29:51
  TRACK 19 AUDIO
    TITLE "Песня Про Случаи"
    PERFORMER "Владимир Высоцкий"
    FLAGS DCP
    INDEX 01 48:07:41
  TRACK 20 AUDIO
    TITLE "Горизонт"
    PERFORMER "Владимир Высоцкий"
    FLAGS DCP
    INDEX 01 51:47:44
  TRACK 21 AUDIO
    TITLE "Кони Привередливые"
    PERFORMER "Владимир Высоцкий"
    FLAGS DCP
    INDEX 01 54:59:15

Отчёт auCDtect Task manager&#58;

Код:
-----------------------
DON'T MODIFY THIS FILE
-----------------------
PERFORMER: auCDtect Task Manager, ver. 1.6.0 RC1 build 1.6.0.1
Copyright (c) 2008-2010 y-soft. All rights reserved
http://y-soft.org
ANALYZER: auCDtect: CD records authenticity detector, version 0.8.2
Copyright (c) 2004 Oleg Berngardt. All rights reserved.
Copyright (c) 2004 Alexander Djourik. All rights reserved.
FILE: Владимир Высоцкий - Чуть Помедленнее, Кони....flac
  Size: 366717929 Hash: 140188ED38DDC1B357D7CCFAF6E501FE Accuracy: -m0
  Conclusion: CDDA 100%
  Signature: 608C28256C96422CFA27C7C3F40132D5C2DE898F

CD02 - Ой, где был я вчера...

Треклист:
01. Наводчица
02. Нам вчера прислали...
03. Песенка о слухах
04. Если б водка была на одного...
05. Ой, где был я вчера
06. Про любовь в эпоху возрождения
07. Городской романс
08. Товарищи ученые
09. Песня о конькобежце на короткие дистанции...
10. Песня о сентиментальном боксере
11. Баллада о гипсе
12. Про любовь в каменном веке
13. Песня завистника
14. Мне каждый вечер зажигают свечи...
15. Все позади-и КПЗ, и суд...
16. Песня про уголовный кодекс
17. Бал-маскарад
18. То была не интрижка...
19. Банька по черному
20. Диалог у телевизора
21. Посещение музы, или песенка плагиатора
Продолжительность: 00:54:30

Отчёт ЕАС&#58;

Код:
Exact Audio Copy V1.0 beta 3 from 29. August 2011
Отчёт EAC об извлечении, выполненном 19. августа 2016, 10:09
Владимир Высоцкий / Ой, где был я вчера…
Дисковод: ASUS    DRW-24B3ST   Adapter: 3  ID: 0
Режим чтения                 : Достоверность
Использование точного потока : Да
Отключение кэша аудио        : Да
Использование указателей C2  : Нет
Коррекция смещения при чтении                     : 6
Способность читать области Lead-in и Lead-out     : Нет
Заполнение пропущенных сэмплов тишиной            : Да
Удаление блоков с тишиной в начале и конце        : Нет
При вычислениях CRC использовались нулевые сэмплы : Да
Интерфейс                                         : Встроенный Win32-интерфейс для Win NT/2000
Выходной формат          : Пользовательский кодировщик
Выбранный битрейт        : 128 kBit/s
Качество                 : Высокий
Добавление ID3-тега      : Нет
Утилита сжатия           : C:\Program Files (x86)\Exact Audio Copy\Flac\flac.exe
Дополнительные параметры :  -V -8 -T "Date=%year%" -T "Genre=%genre%" %source%
TOC извлечённого CD
     Трек |   Старт  | Длительность | Начальный сектор | Конечный сектор
    ---------------------------------------------------------------------
       1  |  0:00.00 |    1:55.35   |           0      |       8659
       2  |  1:55.35 |    1:23.45   |        8660      |      14929
       3  |  3:19.05 |    3:00.71   |       14930      |      28500
       4  |  6:20.01 |    2:22.12   |       28501      |      39162
       5  |  8:42.13 |    2:54.72   |       39163      |      52284
       6  | 11:37.10 |    4:07.58   |       52285      |      70867
       7  | 15:44.68 |    2:51.52   |       70868      |      83744
       8  | 18:36.45 |    4:12.24   |       83745      |     102668
       9  | 22:48.69 |    2:53.17   |      102669      |     115660
      10  | 25:42.11 |    1:09.30   |      115661      |     120865
      11  | 26:51.41 |    4:36.41   |      120866      |     141606
      12  | 31:28.07 |    1:33.74   |      141607      |     148655
      13  | 33:02.06 |    1:48.62   |      148656      |     156817
      14  | 34:50.68 |    2:07.39   |      156818      |     166381
      15  | 36:58.32 |    2:20.68   |      166382      |     176949
      16  | 39:19.25 |    2:04.08   |      176950      |     186257
      17  | 41:23.33 |    1:41.54   |      186258      |     193886
      18  | 43:05.12 |    1:45.65   |      193887      |     201826
      19  | 44:51.02 |    3:15.69   |      201827      |     216520
      20  | 48:06.71 |    4:25.43   |      216521      |     236438
      21  | 52:32.39 |    1:57.05   |      236439      |     245218
Характеристики диапазона извлечения и сообщения об ошибках
Выбранный диапазон
     Имя файла E:\РАЗДАЧИ\NNMClub-eloychik ®\Владимир Высоцкий - Новое звучание!!! [NNMClub.to]\CD2 - Ой, где был я вчера…\Владимир Высоцкий - Ой, где был я вчера….wav
     Пиковый уровень 100.0 %
     Скорость извлечения 1.9 X
     Качество диапазона 100.0 %
     CRC теста 6F992B68
     CRC копии 6F992B68
     Копирование... OK
Ошибок не произошло
AccurateRip: сводка
Трек  1  точность не определена (достоверность 1)  [B71292E8], AccurateRip вернул [4C788D75]  (AR v2)
Трек  2  : извлечено точно (доверие 1)  [BF48F17F]  (AR v2)
Трек  3  : извлечено точно (доверие 1)  [A76A3568]  (AR v2)
Трек  4  : извлечено точно (доверие 1)  [6AA26F51]  (AR v2)
Трек  5  : извлечено точно (доверие 1)  [9B05EC88]  (AR v2)
Трек  6  : извлечено точно (доверие 1)  [390B3E59]  (AR v2)
Трек  7  : извлечено точно (доверие 1)  [BDD8DE95]  (AR v2)
Трек  8  : извлечено точно (доверие 1)  [48757B0A]  (AR v2)
Трек  9  : извлечено точно (доверие 1)  [FEA0B917]  (AR v2)
Трек 10  : извлечено точно (доверие 1)  [30E0E113]  (AR v2)
Трек 11  : извлечено точно (доверие 1)  [33A78D72]  (AR v2)
Трек 12  : извлечено точно (доверие 1)  [B0A5E368]  (AR v2)
Трек 13  : извлечено точно (доверие 1)  [605B45B4]  (AR v2)
Трек 14  : извлечено точно (доверие 1)  [EA305FA6]  (AR v2)
Трек 15  : извлечено точно (доверие 1)  [8013009B]  (AR v2)
Трек 16  : извлечено точно (доверие 1)  [C03BF39A]  (AR v2)
Трек 17  : извлечено точно (доверие 1)  [8C7EED73]  (AR v2)
Трек 18  : извлечено точно (доверие 1)  [7A7B905C]  (AR v2)
Трек 19  : извлечено точно (доверие 1)  [02B278E0]  (AR v2)
Трек 20  : извлечено точно (доверие 1)  [793ED613]  (AR v2)
Трек 21  : извлечено точно (доверие 1)  [BCD17EA2]  (AR v2)
20 трек(и) скопированы точно
1 трек(и) не удалось проверить на точность
Некоторые треки не прошли проверку на точность
Конец отчёта
==== Контрольная сумма отчёта D5E196EF1FE15186C6DE2A7DECD4D4B54E2E30791E431667C588986BADE3C649 ====

Cue Sheet (.cue&#41;&#58;

Код:
REM GENRE Chanson
REM DATE 2005
REM DISCID 2C0CC515
REM COMMENT "ExactAudioCopy v1.0b3"
PERFORMER "Владимир Высоцкий"
TITLE "Ой, где был я вчера…"
FILE "Владимир Высоцкий - Ой, где был я вчера….flac" WAVE
  TRACK 01 AUDIO
    TITLE "Наводчица"
    PERFORMER "Владимир Высоцкий"
    FLAGS DCP
    INDEX 01 00:00:00
  TRACK 02 AUDIO
    TITLE "Нам вчера прислали…"
    PERFORMER "Владимир Высоцкий"
    FLAGS DCP
    INDEX 00 01:53:35
    INDEX 01 01:55:35
  TRACK 03 AUDIO
    TITLE "Песенка о слухах"
    PERFORMER "Владимир Высоцкий"
    FLAGS DCP
    INDEX 00 03:17:05
    INDEX 01 03:19:05
  TRACK 04 AUDIO
    TITLE "Если б водка была на одного…"
    PERFORMER "Владимир Высоцкий"
    FLAGS DCP
    INDEX 00 06:18:02
    INDEX 01 06:20:01
  TRACK 05 AUDIO
    TITLE "Ой, где был я вчера"
    PERFORMER "Владимир Высоцкий"
    FLAGS DCP
    INDEX 00 08:39:30
    INDEX 01 08:42:13
  TRACK 06 AUDIO
    TITLE "Про любовь в эпоху Возрождения"
    PERFORMER "Владимир Высоцкий"
    FLAGS DCP
    INDEX 00 11:33:71
    INDEX 01 11:37:10
  TRACK 07 AUDIO
    TITLE "Городской романс"
    PERFORMER "Владимир Высоцкий"
    FLAGS DCP
    INDEX 00 15:42:69
    INDEX 01 15:44:68
  TRACK 08 AUDIO
    TITLE "Товарищи учёные"
    PERFORMER "Владимир Высоцкий"
    FLAGS DCP
    INDEX 00 18:33:59
    INDEX 01 18:36:45
  TRACK 09 AUDIO
    TITLE "Песня о конькобежце на короткие дистанции, которого заставили бежать на длинную"
    PERFORMER "Владимир Высоцкий"
    FLAGS DCP
    INDEX 00 22:45:30
    INDEX 01 22:48:69
  TRACK 10 AUDIO
    TITLE "Песня о сентиментальном боксёре"
    PERFORMER "Владимир Высоцкий"
    FLAGS DCP
    INDEX 00 25:40:11
    INDEX 01 25:42:11
  TRACK 11 AUDIO
    TITLE "Баллада о гипсе"
    PERFORMER "Владимир Высоцкий"
    FLAGS DCP
    INDEX 00 26:48:12
    INDEX 01 26:51:41
  TRACK 12 AUDIO
    TITLE "Про любовь в каменном веке"
    PERFORMER "Владимир Высоцкий"
    FLAGS DCP
    INDEX 00 31:25:11
    INDEX 01 31:28:07
  TRACK 13 AUDIO
    TITLE "Песня завистника"
    PERFORMER "Владимир Высоцкий"
    FLAGS DCP
    INDEX 00 32:56:47
    INDEX 01 33:02:06
  TRACK 14 AUDIO
    TITLE "Мне каждый вечер зажигают свечи…"
    PERFORMER "Владимир Высоцкий"
    FLAGS DCP
    INDEX 00 34:46:61
    INDEX 01 34:50:68
  TRACK 15 AUDIO
    TITLE "Всё позади — и КПЗ, и суд…"
    PERFORMER "Владимир Высоцкий"
    FLAGS DCP
    INDEX 00 36:54:59
    INDEX 01 36:58:32
  TRACK 16 AUDIO
    TITLE "Песня про Уголовный кодекс"
    PERFORMER "Владимир Высоцкий"
    FLAGS DCP
    INDEX 00 39:16:65
    INDEX 01 39:19:25
  TRACK 17 AUDIO
    TITLE "Бал-маскарад"
    PERFORMER "Владимир Высоцкий"
    FLAGS DCP
    INDEX 00 41:20:64
    INDEX 01 41:23:33
  TRACK 18 AUDIO
    TITLE "То была не интрижка…"
    PERFORMER "Владимир Высоцкий"
    FLAGS DCP
    INDEX 00 43:03:11
    INDEX 01 43:05:12
  TRACK 19 AUDIO
    TITLE "Банька по-чёрному"
    PERFORMER "Владимир Высоцкий"
    FLAGS DCP
    INDEX 00 44:48:25
    INDEX 01 44:51:02
  TRACK 20 AUDIO
    TITLE "Диалог у телевизора"
    PERFORMER "Владимир Высоцкий"
    FLAGS DCP
    INDEX 00 48:03:15
    INDEX 01 48:06:71
  TRACK 21 AUDIO
    TITLE "Посещение Музы, или Песенка плагиатора"
    PERFORMER "Владимир Высоцкий"
    FLAGS DCP
    INDEX 00 52:29:64
    INDEX 01 52:32:39

Отчёт auCDtect Task manager&#58;

Код:
-----------------------
DON'T MODIFY THIS FILE
-----------------------
PERFORMER: auCDtect Task Manager, ver. 1.6.0 RC1 build 1.6.0.1
Copyright (c) 2008-2010 y-soft. All rights reserved
http://y-soft.org
ANALYZER: auCDtect: CD records authenticity detector, version 0.8.2
Copyright (c) 2004 Oleg Berngardt. All rights reserved.
Copyright (c) 2004 Alexander Djourik. All rights reserved.
FILE: Владимир Высоцкий - Ой, где был я вчера….flac
  Size: 323131965 Hash: AD063765B802033DE40A020BF98BF850 Accuracy: -m0
  Conclusion: CDDA 100%
  Signature: 5622925977A269CA99FFFAF91DFA4678009A892D

CD03 - Я любил и женщин и проказы...

Треклист:
01. Красное,зелёное
02. Я любил женщин, и проказы...
03. Говорят,арестован...
04. И вкусы и запросы мои - странны...
05. Я женщин не бил до 17-ти лет
06. Песня про стукача
07. Ну,о чём с тобою говорить
08. Я был душой дурного общества
09. У неё всё своё - и бельё,и жильё...
10. Помню,я однажды и в очко,и в стос`играл..
11. Что же ты,зараза,бровь себе подбрила
12. Вот раньше жизнь
13. О нашей встрече
14. Тот,кто раньше с нею был
15. Подумаешь - с женой не очень ладно...
16. Позабыв про дела и тревоги...
17. Правда ведь,обидно
18. Попутчик
19. Возвратился друг у меня
20. Счётчик щёлкает
21. То ли - в избу,и запеть
22. Большой Каретный
Продолжительность: 00:45:01

Отчёт ЕАС&#58;

Код:
Exact Audio Copy V1.0 beta 3 from 29. August 2011
Отчёт EAC об извлечении, выполненном 19. августа 2016, 13:08
Владимир Высоцкий / Я любил и женщин и проказы…
Дисковод: ASUS    DRW-24B3ST   Adapter: 3  ID: 0
Режим чтения                 : Достоверность
Использование точного потока : Да
Отключение кэша аудио        : Да
Использование указателей C2  : Нет
Коррекция смещения при чтении                     : 6
Способность читать области Lead-in и Lead-out     : Нет
Заполнение пропущенных сэмплов тишиной            : Да
Удаление блоков с тишиной в начале и конце        : Нет
При вычислениях CRC использовались нулевые сэмплы : Да
Интерфейс                                         : Встроенный Win32-интерфейс для Win NT/2000
Выходной формат          : Пользовательский кодировщик
Выбранный битрейт        : 128 kBit/s
Качество                 : Высокий
Добавление ID3-тега      : Нет
Утилита сжатия           : C:\Program Files (x86)\Exact Audio Copy\Flac\flac.exe
Дополнительные параметры :  -V -8 -T "Date=%year%" -T "Genre=%genre%" %source%
TOC извлечённого CD
     Трек |   Старт  | Длительность | Начальный сектор | Конечный сектор
    ---------------------------------------------------------------------
       1  |  0:00.00 |    0:50.07   |           0      |       3756
       2  |  0:50.07 |    1:56.72   |        3757      |      12528
       3  |  2:47.04 |    1:05.68   |       12529      |      17471
       4  |  3:52.72 |    2:46.04   |       17472      |      29925
       5  |  6:39.01 |    2:31.44   |       29926      |      41294
       6  |  9:10.45 |    2:20.40   |       41295      |      51834
       7  | 11:31.10 |    1:24.08   |       51835      |      58142
       8  | 12:55.18 |    2:20.05   |       58143      |      68647
       9  | 15:15.23 |    3:18.65   |       68648      |      83562
      10  | 18:34.13 |    2:18.47   |       83563      |      93959
      11  | 20:52.60 |    1:08.67   |       93960      |      99126
      12  | 22:01.52 |    1:52.63   |       99127      |     107589
      13  | 23:54.40 |    3:13.30   |      107590      |     122094
      14  | 27:07.70 |    3:03.11   |      122095      |     135830
      15  | 30:11.06 |    1:20.38   |      135831      |     141868
      16  | 31:31.44 |    1:36.30   |      141869      |     149098
      17  | 33:07.74 |    0:56.43   |      149099      |     153341
      18  | 34:04.42 |    2:40.28   |      153342      |     165369
      19  | 36:44.70 |    2:15.57   |      165370      |     175551
      20  | 39:00.52 |    1:53.42   |      175552      |     184068
      21  | 40:54.19 |    2:34.19   |      184069      |     195637
      22  | 43:28.38 |    1:31.15   |      195638      |     202477
Характеристики диапазона извлечения и сообщения об ошибках
Выбранный диапазон
     Имя файла E:\РАЗДАЧИ\NNMClub-eloychik ®\Владимир Высоцкий - Новое звучание!!! [NNMClub.to]\CD3 - Я любил и женщин и проказы…\Владимир Высоцкий - Я любил и женщин и проказы….wav
     Пиковый уровень 92.4 %
     Скорость извлечения 1.8 X
     Качество диапазона 100.0 %
     CRC теста 830B463F
     CRC копии 830B463F
     Копирование... OK
Ошибок не произошло
AccurateRip: сводка
Трек  1  отсутствует в базе данных
Трек  2  отсутствует в базе данных
Трек  3  отсутствует в базе данных
Трек  4  отсутствует в базе данных
Трек  5  отсутствует в базе данных
Трек  6  отсутствует в базе данных
Трек  7  отсутствует в базе данных
Трек  8  отсутствует в базе данных
Трек  9  отсутствует в базе данных
Трек 10  отсутствует в базе данных
Трек 11  отсутствует в базе данных
Трек 12  отсутствует в базе данных
Трек 13  отсутствует в базе данных
Трек 14  отсутствует в базе данных
Трек 15  отсутствует в базе данных
Трек 16  отсутствует в базе данных
Трек 17  отсутствует в базе данных
Трек 18  отсутствует в базе данных
Трек 19  отсутствует в базе данных
Трек 20  отсутствует в базе данных
Трек 21  отсутствует в базе данных
Трек 22  отсутствует в базе данных
Ни одного трека нет в базе AccurateRip
Конец отчёта
==== Контрольная сумма отчёта 2A5A03503BB8D83FB93C6D0AC7C09984F2B455C637DF201702D6726088887B42 ====

Cue Sheet (.cue&#41;&#58;

Код:
REM GENRE Chanson
REM DATE 2006
REM DISCID 220A8B16
REM COMMENT "ExactAudioCopy v1.0b3"
PERFORMER "Владимир Высоцкий"
TITLE "Я любил и женщин и проказы…"
FILE "Владимир Высоцкий - Я любил и женщин и проказы….flac" WAVE
  TRACK 01 AUDIO
    TITLE "Красное, зелёное"
    PERFORMER "Владимир Высоцкий"
    FLAGS DCP
    INDEX 01 00:00:00
  TRACK 02 AUDIO
    TITLE "Я любил и женщин, и проказы…"
    PERFORMER "Владимир Высоцкий"
    FLAGS DCP
    INDEX 00 00:48:07
    INDEX 01 00:50:07
  TRACK 03 AUDIO
    TITLE "Говорят, арестован…"
    PERFORMER "Владимир Высоцкий"
    FLAGS DCP
    INDEX 00 02:45:04
    INDEX 01 02:47:04
  TRACK 04 AUDIO
    TITLE "И вкусы и запросы мои странны…"
    PERFORMER "Владимир Высоцкий"
    FLAGS DCP
    INDEX 00 03:50:72
    INDEX 01 03:52:72
  TRACK 05 AUDIO
    TITLE "Я женщин не бил до 17-ти лет"
    PERFORMER "Владимир Высоцкий"
    FLAGS DCP
    INDEX 00 06:37:01
    INDEX 01 06:39:01
  TRACK 06 AUDIO
    TITLE "Песня про стукача"
    PERFORMER "Владимир Высоцкий"
    FLAGS DCP
    INDEX 00 09:08:45
    INDEX 01 09:10:45
  TRACK 07 AUDIO
    TITLE "Ну, о чём с тобою говорить!…"
    PERFORMER "Владимир Высоцкий"
    FLAGS DCP
    INDEX 00 11:29:10
    INDEX 01 11:31:10
  TRACK 08 AUDIO
    TITLE "Я был душой дурного общества"
    PERFORMER "Владимир Высоцкий"
    FLAGS DCP
    INDEX 00 12:53:18
    INDEX 01 12:55:18
  TRACK 09 AUDIO
    TITLE "У неё всё своё — и бельё, и жильё…"
    PERFORMER "Владимир Высоцкий"
    FLAGS DCP
    INDEX 00 15:13:23
    INDEX 01 15:15:23
  TRACK 10 AUDIO
    TITLE "Помню, я однажды и в «очко», и в «стос» играл…"
    PERFORMER "Владимир Высоцкий"
    FLAGS DCP
    INDEX 00 18:32:13
    INDEX 01 18:34:13
  TRACK 11 AUDIO
    TITLE "Что же ты, зараза, бровь себе подбрила…"
    PERFORMER "Владимир Высоцкий"
    FLAGS DCP
    INDEX 00 20:50:60
    INDEX 01 20:52:60
  TRACK 12 AUDIO
    TITLE "Вот раньше жизнь!…"
    PERFORMER "Владимир Высоцкий"
    FLAGS DCP
    INDEX 00 21:59:52
    INDEX 01 22:01:52
  TRACK 13 AUDIO
    TITLE "О нашей встрече"
    PERFORMER "Владимир Высоцкий"
    FLAGS DCP
    INDEX 00 23:52:40
    INDEX 01 23:54:40
  TRACK 14 AUDIO
    TITLE "Тот, кто раньше с нею был"
    PERFORMER "Владимир Высоцкий"
    FLAGS DCP
    INDEX 00 27:05:70
    INDEX 01 27:07:70
  TRACK 15 AUDIO
    TITLE "Подумаешь — с женой не очень ладно…"
    PERFORMER "Владимир Высоцкий"
    FLAGS DCP
    INDEX 00 30:09:06
    INDEX 01 30:11:06
  TRACK 16 AUDIO
    TITLE "Позабыв про дела и тревоги…"
    PERFORMER "Владимир Высоцкий"
    FLAGS DCP
    INDEX 00 31:29:44
    INDEX 01 31:31:44
  TRACK 17 AUDIO
    TITLE "Правда ведь, обидно"
    PERFORMER "Владимир Высоцкий"
    FLAGS DCP
    INDEX 00 33:05:74
    INDEX 01 33:07:74
  TRACK 18 AUDIO
    TITLE "Попутчик"
    PERFORMER "Владимир Высоцкий"
    FLAGS DCP
    INDEX 00 34:02:42
    INDEX 01 34:04:42
  TRACK 19 AUDIO
    TITLE "Возвратился друг у меня…"
    PERFORMER "Владимир Высоцкий"
    FLAGS DCP
    INDEX 00 36:42:70
    INDEX 01 36:44:70
  TRACK 20 AUDIO
    TITLE "Счётчик щёлкает"
    PERFORMER "Владимир Высоцкий"
    FLAGS DCP
    INDEX 00 38:58:52
    INDEX 01 39:00:52
  TRACK 21 AUDIO
    TITLE "То ли — в избу, и запеть…"
    PERFORMER "Владимир Высоцкий"
    FLAGS DCP
    INDEX 00 40:52:19
    INDEX 01 40:54:19
  TRACK 22 AUDIO
    TITLE "Большой Каретный"
    PERFORMER "Владимир Высоцкий"
    FLAGS DCP
    INDEX 00 43:26:38
    INDEX 01 43:28:38

Отчёт auCDtect Task manager&#58;

Код:
-----------------------
DON'T MODIFY THIS FILE
-----------------------
PERFORMER: auCDtect Task Manager, ver. 1.6.0 RC1 build 1.6.0.1
Copyright (c) 2008-2010 y-soft. All rights reserved
http://y-soft.org
ANALYZER: auCDtect: CD records authenticity detector, version 0.8.2
Copyright (c) 2004 Oleg Berngardt. All rights reserved.
Copyright (c) 2004 Alexander Djourik. All rights reserved.
FILE: Владимир Высоцкий - Я любил и женщин и проказы….flac
  Size: 270628456 Hash: AAEDD3C2D2EACAFD6BAD777054BE1C98 Accuracy: -m0
  Conclusion: CDDA 100%
  Signature: 5ADD946A5A351E36D2C0ADFFB631EE910C8C41B1

CD04 - Золотые мои россыпи...

Треклист:
01. Баллада о детстве
02. Бросьте скуку как корку арбузную...
03. Высота
04. Песня о звёздах
05. К вершине
06. Письмо
07. Спасите наши души
08. Прерванный полет
09. Про Сережку Фомина
10. Песня спившегося снайпера
11. Ноль семь
12. Марш аквалангистов
13. Ну вот, исчезла дрожь в руках...
14. Песня о друге
15. Баллада о любви
16. Шторм
17. Дом хрустальный
18. Парус
19. Песня о двух погибших лебедях
20. Вы в огне да и в море вовеки не сыщете брода...
21. Баллада о борьбе
Продолжительность: 00:58:05

Отчёт ЕАС&#58;

Код:
Exact Audio Copy V1.0 beta 3 from 29. August 2011
Отчёт EAC об извлечении, выполненном 19. августа 2016, 14:47
Владимир Высоцкий / Золотые мои россыпи...
Дисковод: ASUS    DRW-24B3ST   Adapter: 3  ID: 0
Режим чтения                 : Достоверность
Использование точного потока : Да
Отключение кэша аудио        : Да
Использование указателей C2  : Нет
Коррекция смещения при чтении                     : 6
Способность читать области Lead-in и Lead-out     : Нет
Заполнение пропущенных сэмплов тишиной            : Да
Удаление блоков с тишиной в начале и конце        : Нет
При вычислениях CRC использовались нулевые сэмплы : Да
Интерфейс                                         : Встроенный Win32-интерфейс для Win NT/2000
Выходной формат          : Пользовательский кодировщик
Выбранный битрейт        : 128 kBit/s
Качество                 : Высокий
Добавление ID3-тега      : Нет
Утилита сжатия           : C:\Program Files (x86)\Exact Audio Copy\Flac\flac.exe
Дополнительные параметры :  -V -8 -T "Date=%year%" -T "Genre=%genre%" %source%
TOC извлечённого CD
     Трек |   Старт  | Длительность | Начальный сектор | Конечный сектор
    ---------------------------------------------------------------------
       1  |  0:00.00 |    6:40.36   |           0      |      30035
       2  |  6:40.36 |    1:19.20   |       30036      |      35980
       3  |  7:59.56 |    1:40.04   |       35981      |      43484
       4  |  9:39.60 |    2:01.48   |       43485      |      52607
       5  | 11:41.33 |    2:09.72   |       52608      |      62354
       6  | 13:51.30 |    2:42.54   |       62355      |      74558
       7  | 16:34.09 |    4:14.65   |       74559      |      93673
       8  | 20:48.74 |    4:27.54   |       93674      |     113752
       9  | 25:16.53 |    2:42.14   |      113753      |     125916
      10  | 27:58.67 |    0:44.72   |      125917      |     129288
      11  | 28:43.64 |    2:50.49   |      129289      |     142087
      12  | 31:34.38 |    1:50.32   |      142088      |     150369
      13  | 33:24.70 |    3:11.41   |      150370      |     164735
      14  | 36:36.36 |    2:01.65   |      164736      |     173875
      15  | 38:38.26 |    4:50.50   |      173876      |     195675
      16  | 43:29.01 |    3:03.09   |      195676      |     209409
      17  | 46:32.10 |    2:13.62   |      209410      |     219446
      18  | 48:45.72 |    1:20.44   |      219447      |     225490
      19  | 50:06.41 |    1:52.66   |      225491      |     233956
      20  | 51:59.32 |    2:27.11   |      233957      |     244992
      21  | 54:26.43 |    3:37.43   |      244993      |     261310
Характеристики диапазона извлечения и сообщения об ошибках
Выбранный диапазон
     Имя файла E:\РАЗДАЧИ\NNMClub-eloychik ®\Владимир Высоцкий - Новое звучание!!! [NNMClub.to]\CD4 - Золотые мои россыпи\Владимир Высоцкий - Золотые мои россыпи....wav
     Пиковый уровень 94.4 %
     Скорость извлечения 1.9 X
     Качество диапазона 100.0 %
     CRC теста 6DFA72E2
     CRC копии 6DFA72E2
     Копирование... OK
Ошибок не произошло
AccurateRip: сводка
Трек  1  отсутствует в базе данных
Трек  2  отсутствует в базе данных
Трек  3  отсутствует в базе данных
Трек  4  отсутствует в базе данных
Трек  5  отсутствует в базе данных
Трек  6  отсутствует в базе данных
Трек  7  отсутствует в базе данных
Трек  8  отсутствует в базе данных
Трек  9  отсутствует в базе данных
Трек 10  отсутствует в базе данных
Трек 11  отсутствует в базе данных
Трек 12  отсутствует в базе данных
Трек 13  отсутствует в базе данных
Трек 14  отсутствует в базе данных
Трек 15  отсутствует в базе данных
Трек 16  отсутствует в базе данных
Трек 17  отсутствует в базе данных
Трек 18  отсутствует в базе данных
Трек 19  отсутствует в базе данных
Трек 20  отсутствует в базе данных
Трек 21  отсутствует в базе данных
Ни одного трека нет в базе AccurateRip
Конец отчёта
==== Контрольная сумма отчёта B03DB48E76EB1F4C2E5713243FC7221C76C9AC5AB4B007213F2B16FFDF1D4166 ====

Cue Sheet (.cue&#41;&#58;

Код:
REM GENRE Chanson
REM DATE 2004
REM DISCID 1D0D9C15
REM COMMENT "ExactAudioCopy v1.0b3"
PERFORMER "Владимир Высоцкий"
TITLE "Золотые мои россыпи..."
FILE "Владимир Высоцкий - Золотые мои россыпи....flac" WAVE
  TRACK 01 AUDIO
    TITLE "Баллада о детстве"
    PERFORMER "Владимир Высоцкий"
    INDEX 01 00:00:00
  TRACK 02 AUDIO
    TITLE "Бросьте скуку, как корку арбузную…"
    PERFORMER "Владимир Высоцкий"
    INDEX 00 06:37:36
    INDEX 01 06:40:36
  TRACK 03 AUDIO
    TITLE "Высота"
    PERFORMER "Владимир Высоцкий"
    INDEX 00 07:56:56
    INDEX 01 07:59:56
  TRACK 04 AUDIO
    TITLE "Песня о звёздах"
    PERFORMER "Владимир Высоцкий"
    INDEX 00 09:36:60
    INDEX 01 09:39:60
  TRACK 05 AUDIO
    TITLE "К вершине"
    PERFORMER "Владимир Высоцкий"
    INDEX 00 11:38:33
    INDEX 01 11:41:33
  TRACK 06 AUDIO
    TITLE "Письмо"
    PERFORMER "Владимир Высоцкий"
    INDEX 00 13:48:30
    INDEX 01 13:51:30
  TRACK 07 AUDIO
    TITLE "Спасите наши души"
    PERFORMER "Владимир Высоцкий"
    INDEX 00 16:31:09
    INDEX 01 16:34:09
  TRACK 08 AUDIO
    TITLE "Прерванный полёт"
    PERFORMER "Владимир Высоцкий"
    INDEX 00 20:45:74
    INDEX 01 20:48:74
  TRACK 09 AUDIO
    TITLE "Про Сережку Фомина"
    PERFORMER "Владимир Высоцкий"
    INDEX 00 25:13:53
    INDEX 01 25:16:53
  TRACK 10 AUDIO
    TITLE "Песня спившегося снайпера"
    PERFORMER "Владимир Высоцкий"
    INDEX 00 27:55:67
    INDEX 01 27:58:67
  TRACK 11 AUDIO
    TITLE "Ноль семь"
    PERFORMER "Владимир Высоцкий"
    INDEX 00 28:40:64
    INDEX 01 28:43:64
  TRACK 12 AUDIO
    TITLE "Марш аквалангистов"
    PERFORMER "Владимир Высоцкий"
    INDEX 00 31:31:38
    INDEX 01 31:34:38
  TRACK 13 AUDIO
    TITLE "Ну вот, исчезла дрожь в руках…"
    PERFORMER "Владимир Высоцкий"
    INDEX 00 33:21:70
    INDEX 01 33:24:70
  TRACK 14 AUDIO
    TITLE "Песня о друге"
    PERFORMER "Владимир Высоцкий"
    INDEX 00 36:33:36
    INDEX 01 36:36:36
  TRACK 15 AUDIO
    TITLE "Баллада о Любви"
    PERFORMER "Владимир Высоцкий"
    INDEX 00 38:35:26
    INDEX 01 38:38:26
  TRACK 16 AUDIO
    TITLE "Шторм"
    PERFORMER "Владимир Высоцкий"
    INDEX 00 43:26:01
    INDEX 01 43:29:01
  TRACK 17 AUDIO
    TITLE "Дом хрустальный"
    PERFORMER "Владимир Высоцкий"
    INDEX 00 46:29:10
    INDEX 01 46:32:10
  TRACK 18 AUDIO
    TITLE "Парус"
    PERFORMER "Владимир Высоцкий"
    INDEX 00 48:42:72
    INDEX 01 48:45:72
  TRACK 19 AUDIO
    TITLE "Песня о двух погибших лебедях"
    PERFORMER "Владимир Высоцкий"
    INDEX 00 50:03:41
    INDEX 01 50:06:41
  TRACK 20 AUDIO
    TITLE "Вы в огне да и в море вовеки не сыщете брода…"
    PERFORMER "Владимир Высоцкий"
    INDEX 00 51:56:32
    INDEX 01 51:59:32
  TRACK 21 AUDIO
    TITLE "Баллада о борьбе"
    PERFORMER "Владимир Высоцкий"
    INDEX 00 54:23:43
    INDEX 01 54:26:43

Отчёт auCDtect Task manager&#58;

Код:
-----------------------
DON'T MODIFY THIS FILE
-----------------------
PERFORMER: auCDtect Task Manager, ver. 1.6.0 RC1 build 1.6.0.1
Copyright (c) 2008-2010 y-soft. All rights reserved
http://y-soft.org
ANALYZER: auCDtect: CD records authenticity detector, version 0.8.2
Copyright (c) 2004 Oleg Berngardt. All rights reserved.
Copyright (c) 2004 Alexander Djourik. All rights reserved.
FILE: Владимир Высоцкий - Золотые мои россыпи....flac
  Size: 332510683 Hash: 9ADC883D64E04CF3C2BF392B0FBD049B Accuracy: -m0
  Conclusion: CDDA 100%
  Signature: 03C1021F6C7FF902CCE6DF876A3E909A51964331

CD05 - Ещё не вечер...

Треклист:
01. Пиратская
02. Песня - сказка о нечисти
03. Затяжной прыжок
04. Был развеселый розовый восход...
05. Одна научная загадка, или почему аборигены съели Кука
06. Про любовь в средние века
07. Выезд соловья - разбойника
08. Романс (она была чиста как снег зимой)
09. Мореплаватель - одиночка
10. Этот день будет первым всегда и везде
11. Песня студентов - археологов
12. Сколько чудес за туманами кроется...
13. Бег иноходца
14. Серенада соловья - разбойника
15. Пожары
16. Я в деле
17. Банька по - белому
18. Охота на кабанов
19. У тебя глаза - как нож
20. Песня попугая
21. Еще не вечер
22. Дайте собакам мяса
Продолжительность: 01:03:44

Отчёт ЕАС&#58;

Код:
Exact Audio Copy V1.0 beta 3 from 29. August 2011
Отчёт EAC об извлечении, выполненном 19. августа 2016, 16:37
Владимир Высоцкий / Ещё не вечер…
Дисковод: ASUS    DRW-24B3ST   Adapter: 3  ID: 0
Режим чтения                 : Достоверность
Использование точного потока : Да
Отключение кэша аудио        : Да
Использование указателей C2  : Нет
Коррекция смещения при чтении                     : 6
Способность читать области Lead-in и Lead-out     : Нет
Заполнение пропущенных сэмплов тишиной            : Да
Удаление блоков с тишиной в начале и конце        : Нет
При вычислениях CRC использовались нулевые сэмплы : Да
Интерфейс                                         : Встроенный Win32-интерфейс для Win NT/2000
Выходной формат          : Пользовательский кодировщик
Выбранный битрейт        : 128 kBit/s
Качество                 : Высокий
Добавление ID3-тега      : Нет
Утилита сжатия           : C:\Program Files (x86)\Exact Audio Copy\Flac\flac.exe
Дополнительные параметры :  -V -8 -T "Date=%year%" -T "Genre=%genre%" %source%
TOC извлечённого CD
     Трек |   Старт  | Длительность | Начальный сектор | Конечный сектор
    ---------------------------------------------------------------------
       1  |  0:00.00 |    2:07.34   |           0      |       9558
       2  |  2:07.34 |    2:56.04   |        9559      |      22762
       3  |  5:03.38 |    5:29.01   |       22763      |      47438
       4  | 10:32.39 |    2:49.23   |       47439      |      60136
       5  | 13:21.62 |    2:27.37   |       60137      |      71198
       6  | 15:49.24 |    2:53.06   |       71199      |      84179
       7  | 18:42.30 |    2:44.64   |       84180      |      96543
       8  | 21:27.19 |    3:07.45   |       96544      |     110613
       9  | 24:34.64 |    2:33.34   |      110614      |     122122
      10  | 27:08.23 |    4:49.49   |      122123      |     143846
      11  | 31:57.72 |    1:39.60   |      143847      |     151331
      12  | 33:37.57 |    2:28.53   |      151332      |     162484
      13  | 36:06.35 |    3:27.65   |      162485      |     178074
      14  | 39:34.25 |    2:39.30   |      178075      |     190029
      15  | 42:13.55 |    2:45.30   |      190030      |     202434
      16  | 44:59.10 |    1:22.66   |      202435      |     208650
      17  | 46:22.01 |    8:10.22   |      208651      |     245422
      18  | 54:32.23 |    3:10.44   |      245423      |     259716
      19  | 57:42.67 |    1:28.68   |      259717      |     266384
      20  | 59:11.60 |    1:19.66   |      266385      |     272375
      21  | 60:31.51 |    3:11.47   |      272376      |     286747
Характеристики диапазона извлечения и сообщения об ошибках
Выбранный диапазон
     Имя файла E:\РАЗДАЧИ\NNMClub-eloychik ®\Владимир Высоцкий - Новое звучание!!! [NNMClub.to]\CD5 - Ещё не вечер…\Владимир Высоцкий - Ещё не вечер….wav
     Пиковый уровень 94.4 %
     Скорость извлечения 1.9 X
     Качество диапазона 99.9 %
     CRC теста 4C52ABFC
     CRC копии 4C52ABFC
     Копирование... OK
Ошибок не произошло
AccurateRip: сводка
Трек  1  точность не определена (достоверность 1)  [EE199E2F], AccurateRip вернул [A1CCAD72]  (AR v2)
Трек  2  точность не определена (достоверность 1)  [3C77160E], AccurateRip вернул [078214DE]  (AR v2)
Трек  3  точность не определена (достоверность 1)  [230A83E7], AccurateRip вернул [77AF0A0D]  (AR v2)
Трек  4  точность не определена (достоверность 1)  [4FE01AE6], AccurateRip вернул [379A9565]  (AR v2)
Трек  5  точность не определена (достоверность 1)  [17039908], AccurateRip вернул [A70EC191]  (AR v2)
Трек  6  точность не определена (достоверность 1)  [5ACE097A], AccurateRip вернул [DDC579DF]  (AR v2)
Трек  7  точность не определена (достоверность 1)  [FF554058], AccurateRip вернул [D6442A3C]  (AR v2)
Трек  8  точность не определена (достоверность 1)  [2755A3E4], AccurateRip вернул [88FE7576]  (AR v2)
Трек  9  точность не определена (достоверность 1)  [0397496E], AccurateRip вернул [E371648B]  (AR v2)
Трек 10  точность не определена (достоверность 1)  [7447BED2], AccurateRip вернул [74909410]  (AR v2)
Трек 11  точность не определена (достоверность 1)  [6482BF4D], AccurateRip вернул [51B41BDD]  (AR v2)
Трек 12  точность не определена (достоверность 1)  [A7003C66], AccurateRip вернул [236A3AB1]  (AR v2)
Трек 13  точность не определена (достоверность 1)  [EB03B7BC], AccurateRip вернул [2A2949AD]  (AR v2)
Трек 14  точность не определена (достоверность 1)  [8814F0CC], AccurateRip вернул [DF77381E]  (AR v2)
Трек 15  точность не определена (достоверность 1)  [7A99E494], AccurateRip вернул [FE2A853C]  (AR v2)
Трек 16  точность не определена (достоверность 1)  [39E7FA3E], AccurateRip вернул [CD92DA61]  (AR v2)
Трек 17  точность не определена (достоверность 1)  [2F5B8AB6], AccurateRip вернул [D22BFB5E]  (AR v2)
Трек 18  точность не определена (достоверность 1)  [94AD0DDF], AccurateRip вернул [887CFA4F]  (AR v2)
Трек 19  точность не определена (достоверность 1)  [CF04FC28], AccurateRip вернул [687A19E2]  (AR v2)
Трек 20  точность не определена (достоверность 1)  [CBF0A0F4], AccurateRip вернул [F957D6A6]  (AR v2)
Трек 21  точность не определена (достоверность 1)  [EFBA8C71], AccurateRip вернул [FA8B4609]  (AR v2)
Ни один трек не прошёл проверки на точность
В вашей базе может быть иной вариант штамповки диска
Конец отчёта
==== Контрольная сумма отчёта A2B3B0EDE03E993AA15244FDDC9390C2B7BD796FDFBCBB1830FD4BC4C6557A83 ====

Cue Sheet (.cue&#41;&#58;

Код:
REM GENRE Chanson
REM DATE 2005
REM DISCID 270EEF15
REM COMMENT "ExactAudioCopy v1.0b3"
PERFORMER "Владимир Высоцкий"
TITLE "Ещё не вечер…"
FILE "Владимир Высоцкий - Ещё не вечер….flac" WAVE
  TRACK 01 AUDIO
    TITLE "Пиратская"
    PERFORMER "Владимир Высоцкий"
    FLAGS DCP
    INDEX 01 00:00:00
  TRACK 02 AUDIO
    TITLE "Песня-сказка о нечисти"
    PERFORMER "Владимир Высоцкий"
    FLAGS DCP
    INDEX 00 02:05:34
    INDEX 01 02:07:34
  TRACK 03 AUDIO
    TITLE "Затяжной прыжок"
    PERFORMER "Владимир Высоцкий"
    FLAGS DCP
    INDEX 00 05:01:38
    INDEX 01 05:03:38
  TRACK 04 AUDIO
    TITLE "Был развесёлый розовый восход…"
    PERFORMER "Владимир Высоцкий"
    FLAGS DCP
    INDEX 00 10:30:39
    INDEX 01 10:32:39
  TRACK 05 AUDIO
    TITLE "Одна научная загадка, или Почему аборигены съели Кука"
    PERFORMER "Владимир Высоцкий"
    FLAGS DCP
    INDEX 00 13:19:62
    INDEX 01 13:21:62
  TRACK 06 AUDIO
    TITLE "Про любовь в Средние века"
    PERFORMER "Владимир Высоцкий"
    FLAGS DCP
    INDEX 00 15:47:24
    INDEX 01 15:49:24
  TRACK 07 AUDIO
    TITLE "Выезд Соловья-разбойника"
    PERFORMER "Владимир Высоцкий"
    FLAGS DCP
    INDEX 00 18:40:30
    INDEX 01 18:42:30
  TRACK 08 AUDIO
    TITLE "Романс «Она была чиста как снег зимой…» (из к/ф «Один из нас»)"
    PERFORMER "Владимир Высоцкий"
    FLAGS DCP
    INDEX 00 21:25:19
    INDEX 01 21:27:19
  TRACK 09 AUDIO
    TITLE "Мореплаватель-одиночка"
    PERFORMER "Владимир Высоцкий"
    FLAGS DCP
    INDEX 00 24:32:64
    INDEX 01 24:34:64
  TRACK 10 AUDIO
    TITLE "Этот день будет первым всегда и везде…"
    PERFORMER "Владимир Высоцкий"
    FLAGS DCP
    INDEX 00 27:06:23
    INDEX 01 27:08:23
  TRACK 11 AUDIO
    TITLE "Песня студентов-археологов"
    PERFORMER "Владимир Высоцкий"
    FLAGS DCP
    INDEX 00 31:55:72
    INDEX 01 31:57:72
  TRACK 12 AUDIO
    TITLE "Сколько чудес за туманами кроется…"
    PERFORMER "Владимир Высоцкий"
    FLAGS DCP
    INDEX 00 33:35:57
    INDEX 01 33:37:57
  TRACK 13 AUDIO
    TITLE "Бег иноходца"
    PERFORMER "Владимир Высоцкий"
    FLAGS DCP
    INDEX 00 36:04:35
    INDEX 01 36:06:35
  TRACK 14 AUDIO
    TITLE "Серенада Соловья-разбойника"
    PERFORMER "Владимир Высоцкий"
    FLAGS DCP
    INDEX 00 39:32:25
    INDEX 01 39:34:25
  TRACK 15 AUDIO
    TITLE "Пожары"
    PERFORMER "Владимир Высоцкий"
    FLAGS DCP
    INDEX 00 42:11:55
    INDEX 01 42:13:55
  TRACK 16 AUDIO
    TITLE "Я в деле"
    PERFORMER "Владимир Высоцкий"
    FLAGS DCP
    INDEX 00 44:57:10
    INDEX 01 44:59:10
  TRACK 17 AUDIO
    TITLE "Банька по-белому"
    PERFORMER "Владимир Высоцкий"
    FLAGS DCP
    INDEX 00 46:20:01
    INDEX 01 46:22:01
  TRACK 18 AUDIO
    TITLE "Охота на кабанов"
    PERFORMER "Владимир Высоцкий"
    FLAGS DCP
    INDEX 00 54:30:23
    INDEX 01 54:32:23
  TRACK 19 AUDIO
    TITLE "У тебя глаза — как нож"
    PERFORMER "Владимир Высоцкий"
    FLAGS DCP
    INDEX 00 57:40:67
    INDEX 01 57:42:67
  TRACK 20 AUDIO
    TITLE "Песня попугая"
    PERFORMER "Владимир Высоцкий"
    FLAGS DCP
    INDEX 00 59:09:60
    INDEX 01 59:11:60
  TRACK 21 AUDIO
    TITLE "Ещё не вечер"
    PERFORMER "Владимир Высоцкий"
    FLAGS DCP
    INDEX 00 60:29:51
    INDEX 01 60:31:51

Отчёт auCDtect Task manager&#58;

Код:
-----------------------
DON'T MODIFY THIS FILE
-----------------------
PERFORMER: auCDtect Task Manager, ver. 1.6.0 RC1 build 1.6.0.1
Copyright (c) 2008-2010 y-soft. All rights reserved
http://y-soft.org
ANALYZER: auCDtect: CD records authenticity detector, version 0.8.2
Copyright (c) 2004 Oleg Berngardt. All rights reserved.
Copyright (c) 2004 Alexander Djourik. All rights reserved.
FILE: Владимир Высоцкий - Ещё не вечер….flac
  Size: 370573449 Hash: DD7D7FE1AD2FECA90D981E303703CB71 Accuracy: -m0
  Conclusion: CDDA 100%
  Signature: B7A6FAE14B50D6676FD35534816AAD3D5AE3FA90

CD06 - Тот, который не стрелял...

Треклист:
01. Я не люблю
02. Сыт я по горло, до подбородка...
03. Бодайбо
04. Дорожная история
05. Невидимка
06. Мои похорона, или страшный сон очень смелого человека
07. Песня про первые ряды
08. Памяти Василия Шукшина
09. Он не вернулся из боя
10. Вот и разошлись пути-дороги вдруг...
11. Купола
12. Тот, который не стрелял
13. Случай в ресторане
14. Песня о земле
15. Разбойничья песня
16. Письмо из деревни
17. Письмо из Москвы в деревню
18. Про речку Вачу и попутчицу Валю
19. Памятник
20. Нет меня - я покинул Расею...
21. Натянутый канат
Продолжительность: 00:56:05

Отчёт ЕАС&#58;

Код:
Exact Audio Copy V1.0 beta 3 from 29. August 2011
Отчёт EAC об извлечении, выполненном 19. августа 2016, 18:05
Владимир Высоцкий / Тот, который не стрелял…
Дисковод: ASUS    DRW-24B3ST   Adapter: 3  ID: 0
Режим чтения                 : Достоверность
Использование точного потока : Да
Отключение кэша аудио        : Да
Использование указателей C2  : Нет
Коррекция смещения при чтении                     : 6
Способность читать области Lead-in и Lead-out     : Нет
Заполнение пропущенных сэмплов тишиной            : Да
Удаление блоков с тишиной в начале и конце        : Нет
При вычислениях CRC использовались нулевые сэмплы : Да
Интерфейс                                         : Встроенный Win32-интерфейс для Win NT/2000
Выходной формат          : Пользовательский кодировщик
Выбранный битрейт        : 128 kBit/s
Качество                 : Высокий
Добавление ID3-тега      : Нет
Утилита сжатия           : C:\Program Files (x86)\Exact Audio Copy\Flac\flac.exe
Дополнительные параметры :  -V -8 -T "Date=%year%" -T "Genre=%genre%" %source%
TOC извлечённого CD
     Трек |   Старт  | Длительность | Начальный сектор | Конечный сектор
    ---------------------------------------------------------------------
       1  |  0:00.00 |    2:10.12   |           0      |       9761
       2  |  2:10.12 |    1:04.16   |        9762      |      14577
       3  |  3:14.28 |    1:43.40   |       14578      |      22342
       4  |  4:57.68 |    2:31.68   |       22343      |      33735
       5  |  7:29.61 |    2:48.47   |       33736      |      46382
       6  | 10:18.33 |    2:35.62   |       46383      |      58069
       7  | 12:54.20 |    3:11.48   |       58070      |      72442
       8  | 16:05.68 |    3:01.23   |       72443      |      86040
       9  | 19:07.16 |    2:31.15   |       86041      |      97380
      10  | 21:38.31 |    1:56.02   |       97381      |     106082
      11  | 23:34.33 |    5:06.37   |      106083      |     129069
      12  | 28:40.70 |    2:33.57   |      129070      |     140601
      13  | 31:14.52 |    1:54.03   |      140602      |     149154
      14  | 33:08.55 |    2:17.13   |      149155      |     159442
      15  | 35:25.68 |    3:19.18   |      159443      |     174385
      16  | 38:45.11 |    2:08.71   |      174386      |     184056
      17  | 40:54.07 |    2:03.13   |      184057      |     193294
      18  | 42:57.20 |    3:13.68   |      193295      |     207837
      19  | 46:11.13 |    4:35.47   |      207838      |     228509
      20  | 50:46.60 |    1:49.74   |      228510      |     236758
      21  | 52:36.59 |    3:27.33   |      236759      |     252316
Характеристики диапазона извлечения и сообщения об ошибках
Выбранный диапазон
     Имя файла E:\РАЗДАЧИ\NNMClub-eloychik ®\Владимир Высоцкий - Новое звучание!!! [NNMClub.to]\CD6 - Тот, который не стрелял…\Владимир Высоцкий - Тот, который не стрелял….wav
     Пиковый уровень 94.4 %
     Скорость извлечения 1.9 X
     Качество диапазона 100.0 %
     CRC теста ED5F2A8F
     CRC копии ED5F2A8F
     Копирование... OK
Ошибок не произошло
AccurateRip: сводка
Трек  1  отсутствует в базе данных
Трек  2  отсутствует в базе данных
Трек  3  отсутствует в базе данных
Трек  4  отсутствует в базе данных
Трек  5  отсутствует в базе данных
Трек  6  отсутствует в базе данных
Трек  7  отсутствует в базе данных
Трек  8  отсутствует в базе данных
Трек  9  отсутствует в базе данных
Трек 10  отсутствует в базе данных
Трек 11  отсутствует в базе данных
Трек 12  отсутствует в базе данных
Трек 13  отсутствует в базе данных
Трек 14  отсутствует в базе данных
Трек 15  отсутствует в базе данных
Трек 16  отсутствует в базе данных
Трек 17  отсутствует в базе данных
Трек 18  отсутствует в базе данных
Трек 19  отсутствует в базе данных
Трек 20  отсутствует в базе данных
Трек 21  отсутствует в базе данных
Ни одного трека нет в базе AccurateRip
Конец отчёта
==== Контрольная сумма отчёта B13A2BD14B486134F11F7C9DE13A0FFAF696A9E09BA10C7D6EFA70D0DAEBAF09 ====

Cue Sheet (.cue&#41;&#58;

Код:
REM GENRE Chanson
REM DATE 2004
REM DISCID 320D2415
REM COMMENT "ExactAudioCopy v1.0b3"
PERFORMER "Владимир Высоцкий"
TITLE "Тот, который не стрелял…"
FILE "Владимир Высоцкий - Тот, который не стрелял….flac" WAVE
  TRACK 01 AUDIO
    TITLE "Я не люблю"
    PERFORMER "Владимир Высоцкий"
    FLAGS DCP
    INDEX 01 00:00:00
  TRACK 02 AUDIO
    TITLE "Сыт я по горло, до подбородка…"
    PERFORMER "Владимир Высоцкий"
    FLAGS DCP
    INDEX 00 02:08:12
    INDEX 01 02:10:12
  TRACK 03 AUDIO
    TITLE "Бодайбо"
    PERFORMER "Владимир Высоцкий"
    FLAGS DCP
    INDEX 00 03:12:28
    INDEX 01 03:14:28
  TRACK 04 AUDIO
    TITLE "Дорожная история"
    PERFORMER "Владимир Высоцкий"
    FLAGS DCP
    INDEX 00 04:55:68
    INDEX 01 04:57:68
  TRACK 05 AUDIO
    TITLE "Невидимка"
    PERFORMER "Владимир Высоцкий"
    FLAGS DCP
    INDEX 00 07:27:60
    INDEX 01 07:29:61
  TRACK 06 AUDIO
    TITLE "Мои похорона, или Страшный сон очень смелого человека"
    PERFORMER "Владимир Высоцкий"
    FLAGS DCP
    INDEX 00 10:16:32
    INDEX 01 10:18:33
  TRACK 07 AUDIO
    TITLE "Песня про первые ряды"
    PERFORMER "Владимир Высоцкий"
    FLAGS DCP
    INDEX 00 12:52:19
    INDEX 01 12:54:20
  TRACK 08 AUDIO
    TITLE "Памяти Василия Шукшина"
    PERFORMER "Владимир Высоцкий"
    FLAGS DCP
    INDEX 00 16:03:68
    INDEX 01 16:05:68
  TRACK 09 AUDIO
    TITLE "Он не вернулся из боя"
    PERFORMER "Владимир Высоцкий"
    FLAGS DCP
    INDEX 00 19:05:16
    INDEX 01 19:07:16
  TRACK 10 AUDIO
    TITLE "Вот и разошлись пути-дороги вдруг…"
    PERFORMER "Владимир Высоцкий"
    FLAGS DCP
    INDEX 00 21:36:30
    INDEX 01 21:38:31
  TRACK 11 AUDIO
    TITLE "Купола"
    PERFORMER "Владимир Высоцкий"
    FLAGS DCP
    INDEX 00 23:32:33
    INDEX 01 23:34:33
  TRACK 12 AUDIO
    TITLE "Тот, который не стрелял"
    PERFORMER "Владимир Высоцкий"
    FLAGS DCP
    INDEX 00 28:38:70
    INDEX 01 28:40:70
  TRACK 13 AUDIO
    TITLE "Случай в ресторане"
    PERFORMER "Владимир Высоцкий"
    FLAGS DCP
    INDEX 00 31:12:51
    INDEX 01 31:14:52
  TRACK 14 AUDIO
    TITLE "Песня о земле"
    PERFORMER "Владимир Высоцкий"
    FLAGS DCP
    INDEX 00 33:06:55
    INDEX 01 33:08:55
  TRACK 15 AUDIO
    TITLE "Разбойничья песня"
    PERFORMER "Владимир Высоцкий"
    FLAGS DCP
    INDEX 00 35:23:67
    INDEX 01 35:25:68
  TRACK 16 AUDIO
    TITLE "Письмо из деревни"
    PERFORMER "Владимир Высоцкий"
    FLAGS DCP
    INDEX 00 38:43:10
    INDEX 01 38:45:11
  TRACK 17 AUDIO
    TITLE "Письмо из Москвы в деревню"
    PERFORMER "Владимир Высоцкий"
    FLAGS DCP
    INDEX 00 40:52:07
    INDEX 01 40:54:07
  TRACK 18 AUDIO
    TITLE "Про речку Вачу и попутчицу Валю"
    PERFORMER "Владимир Высоцкий"
    FLAGS DCP
    INDEX 00 42:55:19
    INDEX 01 42:57:20
  TRACK 19 AUDIO
    TITLE "Памятник"
    PERFORMER "Владимир Высоцкий"
    FLAGS DCP
    INDEX 00 46:09:13
    INDEX 01 46:11:13
  TRACK 20 AUDIO
    TITLE "Нет меня — я покинул Расею…"
    PERFORMER "Владимир Высоцкий"
    FLAGS DCP
    INDEX 00 50:44:60
    INDEX 01 50:46:60
  TRACK 21 AUDIO
    TITLE "Натянутый канат"
    PERFORMER "Владимир Высоцкий"
    FLAGS DCP
    INDEX 00 52:34:58
    INDEX 01 52:36:59

Отчёт auCDtect Task manager&#58;

Код:
-----------------------
DON'T MODIFY THIS FILE
-----------------------
PERFORMER: auCDtect Task Manager, ver. 1.6.0 RC1 build 1.6.0.1
Copyright (c) 2008-2010 y-soft. All rights reserved
http://y-soft.org
ANALYZER: auCDtect: CD records authenticity detector, version 0.8.2
Copyright (c) 2004 Oleg Berngardt. All rights reserved.
Copyright (c) 2004 Alexander Djourik. All rights reserved.
FILE: Владимир Высоцкий - Тот, который не стрелял….flac
  Size: 319754655 Hash: BCD99A091F65F462507482BA5FB673A5 Accuracy: -m0
  Conclusion: CDDA 100%
  Signature: 7AB338D1A96935FF261071E94813C60F9CB2F43C

CD07 - Я, конечно, вернусь...

Треклист:
01. Нет меня - я покинул Расею...
02. Песня о Волге
03. Лежит камень во степи
04. Дорога, дорога - счета нет шагам...
05. Песня-сказка о старом доме Новом Арбате...
06. Случай
07. Человек за бортом
08. Давно смолкли залпы орудий...
09. Дела
10. Так дымно, что в зеркале нет отраженья...
11. В этом доме большом раньше пьянка была...
12. Песня о кораблях
13. Всем делам моим на суше вопреки...
14. Песня про белого слона
15. В день, когда мы, поддержкой земли заручась...
16. Белый вальс
17. Всему на свете выходят сроки...
18. Долго же шел ты, в конверте листок...
19. Прощание с горами
20. Гимн морю и горам
Продолжительность: 00:56:15

Отчёт ЕАС&#58;

Код:
Exact Audio Copy V1.0 beta 3 from 29. August 2011
Отчёт EAC об извлечении, выполненном 19. августа 2016, 18:46
Владимир Высоцкий / Я, конечно, вернусь...
Дисковод: ASUS    DRW-24B3ST   Adapter: 3  ID: 0
Режим чтения                 : Достоверность
Использование точного потока : Да
Отключение кэша аудио        : Да
Использование указателей C2  : Нет
Коррекция смещения при чтении                     : 6
Способность читать области Lead-in и Lead-out     : Нет
Заполнение пропущенных сэмплов тишиной            : Да
Удаление блоков с тишиной в начале и конце        : Нет
При вычислениях CRC использовались нулевые сэмплы : Да
Интерфейс                                         : Встроенный Win32-интерфейс для Win NT/2000
Выходной формат          : Пользовательский кодировщик
Выбранный битрейт        : 128 kBit/s
Качество                 : Высокий
Добавление ID3-тега      : Нет
Утилита сжатия           : C:\Program Files (x86)\Exact Audio Copy\Flac\flac.exe
Дополнительные параметры :  -V -8 -T "Date=%year%" -T "Genre=%genre%" %source%
TOC извлечённого CD
     Трек |   Старт  | Длительность | Начальный сектор | Конечный сектор
    ---------------------------------------------------------------------
       1  |  0:00.00 |    1:49.18   |           0      |       8192
       2  |  1:49.18 |    3:50.27   |        8193      |      25469
       3  |  5:39.45 |    1:09.64   |       25470      |      30708
       4  |  6:49.34 |    2:06.37   |       30709      |      40195
       5  |  8:55.71 |    2:23.50   |       40196      |      50970
       6  | 11:19.46 |    3:04.42   |       50971      |      64812
       7  | 14:24.13 |    2:45.59   |       64813      |      77246
       8  | 17:09.72 |    2:17.53   |       77247      |      87574
       9  | 19:27.50 |    1:52.24   |       87575      |      95998
      10  | 21:19.74 |    3:35.16   |       95999      |     112139
      11  | 24:55.15 |    1:12.71   |      112140      |     117610
      12  | 26:08.11 |    2:37.13   |      117611      |     129398
      13  | 28:45.24 |    1:55.14   |      129399      |     138037
      14  | 30:40.38 |    2:55.42   |      138038      |     151204
      15  | 33:36.05 |    3:56.66   |      151205      |     168970
      16  | 37:32.71 |    5:56.16   |      168971      |     195686
      17  | 43:29.12 |    3:35.61   |      195687      |     211872
      18  | 47:04.73 |    3:33.10   |      211873      |     227857
      19  | 50:38.08 |    2:40.30   |      227858      |     239887
      20  | 53:18.38 |    2:56.07   |      239888      |     253094
Характеристики диапазона извлечения и сообщения об ошибках
Выбранный диапазон
     Имя файла E:\РАЗДАЧИ\NNMClub-eloychik ®\Владимир Высоцкий - Новое звучание!!! [NNMClub.to]\CD7 - Я, конечно, вернусь\Владимир Высоцкий - Я, конечно, вернусь....wav
     Пиковый уровень 86.9 %
     Скорость извлечения 3.4 X
     Качество диапазона 99.9 %
     CRC теста 56E0BD35
     CRC копии 56E0BD35
     Копирование... OK
Ошибок не произошло
AccurateRip: сводка
Трек  1  отсутствует в базе данных
Трек  2  отсутствует в базе данных
Трек  3  отсутствует в базе данных
Трек  4  отсутствует в базе данных
Трек  5  отсутствует в базе данных
Трек  6  отсутствует в базе данных
Трек  7  отсутствует в базе данных
Трек  8  отсутствует в базе данных
Трек  9  отсутствует в базе данных
Трек 10  отсутствует в базе данных
Трек 11  отсутствует в базе данных
Трек 12  отсутствует в базе данных
Трек 13  отсутствует в базе данных
Трек 14  отсутствует в базе данных
Трек 15  отсутствует в базе данных
Трек 16  отсутствует в базе данных
Трек 17  отсутствует в базе данных
Трек 18  отсутствует в базе данных
Трек 19  отсутствует в базе данных
Трек 20  отсутствует в базе данных
Ни одного трека нет в базе AccurateRip
Конец отчёта
==== Контрольная сумма отчёта CC1B561513EE6415DEDD85AD4DFC5A2E39793B24BEC20F6A20C319001E77B1D1 ====

Cue Sheet (.cue&#41;&#58;

Код:
REM GENRE Chanson
REM DATE 2007
REM DISCID E90D2E14
REM COMMENT "ExactAudioCopy v1.0b3"
PERFORMER "Владимир Высоцкий"
TITLE "Я, конечно, вернусь..."
FILE "Владимир Высоцкий - Я, конечно, вернусь....flac" WAVE
  TRACK 01 AUDIO
    TITLE "Нет меня - я покинул расею..."
    PERFORMER "Владимир Высоцкий"
    FLAGS DCP
    INDEX 01 00:00:00
  TRACK 02 AUDIO
    TITLE "Песня о волге"
    PERFORMER "Владимир Высоцкий"
    FLAGS DCP
    INDEX 00 01:47:18
    INDEX 01 01:49:18
  TRACK 03 AUDIO
    TITLE "Лежит камень во степи"
    PERFORMER "Владимир Высоцкий"
    FLAGS DCP
    INDEX 00 05:37:45
    INDEX 01 05:39:45
  TRACK 04 AUDIO
    TITLE "Дорога, дорога - счета нет шагам..."
    PERFORMER "Владимир Высоцкий"
    FLAGS DCP
    INDEX 00 06:47:34
    INDEX 01 06:49:34
  TRACK 05 AUDIO
    TITLE "Песня-сказка о старом доме на новом арбате"
    PERFORMER "Владимир Высоцкий"
    FLAGS DCP
    INDEX 00 08:53:71
    INDEX 01 08:55:71
  TRACK 06 AUDIO
    TITLE "Случай"
    PERFORMER "Владимир Высоцкий"
    FLAGS DCP
    INDEX 00 11:17:46
    INDEX 01 11:19:46
  TRACK 07 AUDIO
    TITLE "Человек за бортом"
    PERFORMER "Владимир Высоцкий"
    FLAGS DCP
    INDEX 00 14:22:13
    INDEX 01 14:24:13
  TRACK 08 AUDIO
    TITLE "Давно смолкли залпы орудий..."
    PERFORMER "Владимир Высоцкий"
    FLAGS DCP
    INDEX 00 17:07:72
    INDEX 01 17:09:72
  TRACK 09 AUDIO
    TITLE "Дела"
    PERFORMER "Владимир Высоцкий"
    FLAGS DCP
    INDEX 00 19:25:50
    INDEX 01 19:27:50
  TRACK 10 AUDIO
    TITLE "Так дымно, что в зеркале нет отражения..."
    PERFORMER "Владимир Высоцкий"
    FLAGS DCP
    INDEX 00 21:17:74
    INDEX 01 21:19:74
  TRACK 11 AUDIO
    TITLE "В этом доме большом раньше пьянка была..."
    PERFORMER "Владимир Высоцкий"
    FLAGS DCP
    INDEX 00 24:53:15
    INDEX 01 24:55:15
  TRACK 12 AUDIO
    TITLE "Песня о кораблях"
    PERFORMER "Владимир Высоцкий"
    FLAGS DCP
    INDEX 00 26:06:11
    INDEX 01 26:08:11
  TRACK 13 AUDIO
    TITLE "Всем делам моим на суше вопреки..."
    PERFORMER "Владимир Высоцкий"
    FLAGS DCP
    INDEX 00 28:43:24
    INDEX 01 28:45:24
  TRACK 14 AUDIO
    TITLE "Песня про белого слона"
    PERFORMER "Владимир Высоцкий"
    FLAGS DCP
    INDEX 00 30:38:38
    INDEX 01 30:40:38
  TRACK 15 AUDIO
    TITLE "В день, когда мы, поддержкой земли заручались..."
    PERFORMER "Владимир Высоцкий"
    FLAGS DCP
    INDEX 00 33:34:05
    INDEX 01 33:36:05
  TRACK 16 AUDIO
    TITLE "Белый вальс"
    PERFORMER "Владимир Высоцкий"
    FLAGS DCP
    INDEX 00 37:30:71
    INDEX 01 37:32:71
  TRACK 17 AUDIO
    TITLE "Всему на свете выходят сроки..."
    PERFORMER "Владимир Высоцкий"
    FLAGS DCP
    INDEX 00 43:27:12
    INDEX 01 43:29:12
  TRACK 18 AUDIO
    TITLE "Долго же шел ты, в конверте листок..."
    PERFORMER "Владимир Высоцкий"
    FLAGS DCP
    INDEX 00 47:02:73
    INDEX 01 47:04:73
  TRACK 19 AUDIO
    TITLE "Прощание с горами"
    PERFORMER "Владимир Высоцкий"
    FLAGS DCP
    INDEX 00 50:36:08
    INDEX 01 50:38:08
  TRACK 20 AUDIO
    TITLE "Гимн морю и горам"
    PERFORMER "Владимир Высоцкий"
    FLAGS DCP
    INDEX 00 53:16:38
    INDEX 01 53:18:38

Отчёт auCDtect Task manager&#58;

Код:
-----------------------
DON'T MODIFY THIS FILE
-----------------------
PERFORMER: auCDtect Task Manager, ver. 1.6.0 RC1 build 1.6.0.1
Copyright (c) 2008-2010 y-soft. All rights reserved
http://y-soft.org
ANALYZER: auCDtect: CD records authenticity detector, version 0.8.2
Copyright (c) 2004 Oleg Berngardt. All rights reserved.
Copyright (c) 2004 Alexander Djourik. All rights reserved.
FILE: Владимир Высоцкий - Я, конечно, вернусь....flac
  Size: 281782900 Hash: 5ED31AE001BE858CF98BF597D2340B5E Accuracy: -m0
  Conclusion: CDDA 100%
  Signature: C6975273A7E724D063CAA95B58E69E9F51F3CDCD

CD08 - В Тридевятом государстве...

Треклист:
01. Странная сказка
02. Скоморохи на ярмарке
03. Семейные дела в Древнем Риме
04. Лекция о международном положении, прочитанная человеком, посаженным на 15 суток за мелкое хулиганство, своим сокамерникам
05. Частушки "Гули-гули-гуленьки", из к/ф "Одиножды один"
06. Песенка про козла отпущения
07. Сивка-бурка
08. Так оно и есть...
09. Про дикого вепря
10. У домашних и хищных зверей
11. Лукоморья больше нет
12. Песня про врачей
13. Мишка Шифман
14. Письмо другу, или Зарисовка о Париже
15. В далеком созвездии Тау Кита
16. Письмо в редакцию телевизионной передачи "Очевидное-невероятное" из сумасшедшего дома - с канатчиковой дачи
17. А люди все роптали и роптали...
18. Пародия на плохой детектив
19. Песня о Вещем Олеге
20. В куски разлетелася корона...
21. Баллада о бане
Продолжительность: 00:57:45

Отчёт ЕАС&#58;

Код:
Exact Audio Copy V1.0 beta 3 from 29. August 2011
Отчёт EAC об извлечении, выполненном 19. августа 2016, 19:10
Владимир Высоцкий / В Тридевятом государстве…
Дисковод: ASUS    DRW-24B3ST   Adapter: 3  ID: 0
Режим чтения                 : Достоверность
Использование точного потока : Да
Отключение кэша аудио        : Да
Использование указателей C2  : Нет
Коррекция смещения при чтении                     : 6
Способность читать области Lead-in и Lead-out     : Нет
Заполнение пропущенных сэмплов тишиной            : Да
Удаление блоков с тишиной в начале и конце        : Нет
При вычислениях CRC использовались нулевые сэмплы : Да
Интерфейс                                         : Встроенный Win32-интерфейс для Win NT/2000
Выходной формат          : Пользовательский кодировщик
Выбранный битрейт        : 128 kBit/s
Качество                 : Высокий
Добавление ID3-тега      : Нет
Утилита сжатия           : C:\Program Files (x86)\Exact Audio Copy\Flac\flac.exe
Дополнительные параметры :  -V -8 -T "Date=%year%" -T "Genre=%genre%" %source%
TOC извлечённого CD
     Трек |   Старт  | Длительность | Начальный сектор | Конечный сектор
    ---------------------------------------------------------------------
       1  |  0:00.00 |    2:13.31   |           0      |      10005
       2  |  2:13.31 |    5:38.59   |       10006      |      35414
       3  |  7:52.15 |    2:36.72   |       35415      |      47186
       4  | 10:29.12 |    2:49.42   |       47187      |      59903
       5  | 13:18.54 |    1:57.04   |       59904      |      68682
       6  | 15:15.58 |    3:57.72   |       68683      |      86529
       7  | 19:13.55 |    2:02.38   |       86530      |      95717
       8  | 21:16.18 |    2:14.65   |       95718      |     105832
       9  | 23:31.08 |    2:36.61   |      105833      |     117593
      10  | 26:07.69 |    1:42.32   |      117594      |     125275
      11  | 27:50.26 |    4:22.10   |      125276      |     144935
      12  | 32:12.36 |    1:05.30   |      144936      |     149840
      13  | 33:17.66 |    3:16.48   |      149841      |     164588
      14  | 36:34.39 |    1:32.16   |      164589      |     171504
      15  | 38:06.55 |    3:39.56   |      171505      |     187985
      16  | 41:46.36 |    4:55.14   |      187986      |     210124
      17  | 46:41.50 |    1:38.17   |      210125      |     217491
      18  | 48:19.67 |    2:53.38   |      217492      |     230504
      19  | 51:13.30 |    2:18.58   |      230505      |     240912
      20  | 53:32.13 |    1:16.65   |      240913      |     246677
      21  | 54:49.03 |    2:55.08   |      246678      |     259810
Характеристики диапазона извлечения и сообщения об ошибках
Выбранный диапазон
     Имя файла E:\РАЗДАЧИ\NNMClub-eloychik ®\Владимир Высоцкий - Новое звучание!!! [NNMClub.to]\CD8 - В Тридевятом государстве…\Владимир Высоцкий - В Тридевятом государстве….wav
     Пиковый уровень 92.2 %
     Скорость извлечения 5.9 X
     Качество диапазона 100.0 %
     CRC теста C55493CD
     CRC копии C55493CD
     Копирование... OK
Ошибок не произошло
AccurateRip: сводка
Трек  1  точность не определена (достоверность 1)  [435C8030], AccurateRip вернул [F221FD10]  (AR v2)
Трек  2  точность не определена (достоверность 1)  [906919A4], AccurateRip вернул [BD0D7DE5]  (AR v2)
Трек  3  точность не определена (достоверность 1)  [CAD80BFF], AccurateRip вернул [CCB99479]  (AR v2)
Трек  4  точность не определена (достоверность 1)  [78FBA477], AccurateRip вернул [664E5E77]  (AR v2)
Трек  5  точность не определена (достоверность 1)  [EC42FE3F], AccurateRip вернул [31F98896]  (AR v2)
Трек  6  точность не определена (достоверность 1)  [0362BD54], AccurateRip вернул [A3DA7C9F]  (AR v2)
Трек  7  точность не определена (достоверность 1)  [9EBF6D71], AccurateRip вернул [BE365CC2]  (AR v2)
Трек  8  точность не определена (достоверность 1)  [42B48A59], AccurateRip вернул [7B504736]  (AR v2)
Трек  9  точность не определена (достоверность 1)  [F171333C], AccurateRip вернул [8C2AD49C]  (AR v2)
Трек 10  точность не определена (достоверность 1)  [1400CA5C], AccurateRip вернул [4B90A1A4]  (AR v2)
Трек 11  точность не определена (достоверность 1)  [64AF5497], AccurateRip вернул [25735A21]  (AR v2)
Трек 12  точность не определена (достоверность 1)  [FB4BC286], AccurateRip вернул [DDE4B1A9]  (AR v2)
Трек 13  точность не определена (достоверность 1)  [FE2CB602], AccurateRip вернул [DC4DDC7D]  (AR v2)
Трек 14  точность не определена (достоверность 1)  [7B8D0640], AccurateRip вернул [CD891933]  (AR v2)
Трек 15  точность не определена (достоверность 1)  [528106A1], AccurateRip вернул [9E94FCD6]  (AR v2)
Трек 16  точность не определена (достоверность 1)  [DC9F7D24], AccurateRip вернул [7BEB34C9]  (AR v2)
Трек 17  точность не определена (достоверность 1)  [0D0E10B4], AccurateRip вернул [0D0E0F4F]  (AR v2)
Трек 18  точность не определена (достоверность 1)  [78FF4F7C], AccurateRip вернул [767D8580]  (AR v2)
Трек 19  точность не определена (достоверность 1)  [DE0693D7], AccurateRip вернул [8D122EFB]  (AR v2)
Трек 20  точность не определена (достоверность 1)  [DAF488C7], AccurateRip вернул [7462615D]  (AR v2)
Трек 21  точность не определена (достоверность 1)  [6631756B], AccurateRip вернул [C96F5C71]  (AR v2)
Ни один трек не прошёл проверки на точность
В вашей базе может быть иной вариант штамповки диска
Конец отчёта
==== Контрольная сумма отчёта 5C31EDF3AE9CEB38C81BE25C4290729C87CD6E5DABB585A06DB6DD0341935AE2 ====

Cue Sheet (.cue&#41;&#58;

Код:
REM GENRE Chanson
REM DATE 2005
REM DISCID 2D0D8815
REM COMMENT "ExactAudioCopy v1.0b3"
PERFORMER "Владимир Высоцкий"
TITLE "В Тридевятом государстве…"
FILE "Владимир Высоцкий - В Тридевятом государстве….flac" WAVE
  TRACK 01 AUDIO
    TITLE "Странная сказка"
    PERFORMER "Владимир Высоцкий"
    FLAGS DCP
    INDEX 01 00:00:00
  TRACK 02 AUDIO
    TITLE "Скоморохи на ярмарке"
    PERFORMER "Владимир Высоцкий"
    FLAGS DCP
    INDEX 00 02:11:31
    INDEX 01 02:13:31
  TRACK 03 AUDIO
    TITLE "Семейные дела в Древнем Риме"
    PERFORMER "Владимир Высоцкий"
    FLAGS DCP
    INDEX 00 07:50:15
    INDEX 01 07:52:15
  TRACK 04 AUDIO
    TITLE "Лекция о международном положении, прочитанная человеком, посаженным на 15 сут..."
    PERFORMER "Владимир Высоцкий"
    FLAGS DCP
    INDEX 00 10:27:12
    INDEX 01 10:29:12
  TRACK 05 AUDIO
    TITLE "Частушки («Гули-гули-гуленьки», из к/ф «Одиножды один»)"
    PERFORMER "Владимир Высоцкий"
    FLAGS DCP
    INDEX 00 13:16:54
    INDEX 01 13:18:54
  TRACK 06 AUDIO
    TITLE "Песенка про Козла Отпущения"
    PERFORMER "Владимир Высоцкий"
    FLAGS DCP
    INDEX 00 15:13:58
    INDEX 01 15:15:58
  TRACK 07 AUDIO
    TITLE "Сивка-бурка"
    PERFORMER "Владимир Высоцкий"
    FLAGS DCP
    INDEX 00 19:11:55
    INDEX 01 19:13:55
  TRACK 08 AUDIO
    TITLE "Так оно и есть…"
    PERFORMER "Владимир Высоцкий"
    FLAGS DCP
    INDEX 00 21:14:18
    INDEX 01 21:16:18
  TRACK 09 AUDIO
    TITLE "Про дикого вепря"
    PERFORMER "Владимир Высоцкий"
    FLAGS DCP
    INDEX 00 23:29:08
    INDEX 01 23:31:08
  TRACK 10 AUDIO
    TITLE "У домашних и хищных зверей"
    PERFORMER "Владимир Высоцкий"
    FLAGS DCP
    INDEX 00 26:05:69
    INDEX 01 26:07:69
  TRACK 11 AUDIO
    TITLE "Лукоморья больше нет"
    PERFORMER "Владимир Высоцкий"
    FLAGS DCP
    INDEX 00 27:48:26
    INDEX 01 27:50:26
  TRACK 12 AUDIO
    TITLE "Песня про врачей"
    PERFORMER "Владимир Высоцкий"
    FLAGS DCP
    INDEX 00 32:10:36
    INDEX 01 32:12:36
  TRACK 13 AUDIO
    TITLE "Мишка Шифман"
    PERFORMER "Владимир Высоцкий"
    FLAGS DCP
    INDEX 00 33:15:66
    INDEX 01 33:17:66
  TRACK 14 AUDIO
    TITLE "Письмо другу, или Зарисовка о Париже"
    PERFORMER "Владимир Высоцкий"
    FLAGS DCP
    INDEX 00 36:32:39
    INDEX 01 36:34:39
  TRACK 15 AUDIO
    TITLE "В далеком созвездии Тау Кита"
    PERFORMER "Владимир Высоцкий"
    FLAGS DCP
    INDEX 00 38:04:55
    INDEX 01 38:06:55
  TRACK 16 AUDIO
    TITLE "Письмо в редакцию телевизионной передачи «Очевидное-невероятное» из сумасшедш..."
    PERFORMER "Владимир Высоцкий"
    FLAGS DCP
    INDEX 00 41:44:36
    INDEX 01 41:46:36
  TRACK 17 AUDIO
    TITLE "А люди всё роптали и роптали…"
    PERFORMER "Владимир Высоцкий"
    FLAGS DCP
    INDEX 00 46:39:50
    INDEX 01 46:41:50
  TRACK 18 AUDIO
    TITLE "Пародия на плохой детектив"
    PERFORMER "Владимир Высоцкий"
    FLAGS DCP
    INDEX 00 48:17:67
    INDEX 01 48:19:67
  TRACK 19 AUDIO
    TITLE "Песня о вещем Олеге"
    PERFORMER "Владимир Высоцкий"
    FLAGS DCP
    INDEX 00 51:11:30
    INDEX 01 51:13:30
  TRACK 20 AUDIO
    TITLE "В куски разлетелася корона…"
    PERFORMER "Владимир Высоцкий"
    FLAGS DCP
    INDEX 00 53:30:13
    INDEX 01 53:32:13
  TRACK 21 AUDIO
    TITLE "Баллада о бане"
    PERFORMER "Владимир Высоцкий"
    FLAGS DCP
    INDEX 00 54:47:03
    INDEX 01 54:49:03

Отчёт auCDtect Task manager&#58;

Код:
-----------------------
DON'T MODIFY THIS FILE
-----------------------
PERFORMER: auCDtect Task Manager, ver. 1.6.0 RC1 build 1.6.0.1
Copyright (c) 2008-2010 y-soft. All rights reserved
http://y-soft.org
ANALYZER: auCDtect: CD records authenticity detector, version 0.8.2
Copyright (c) 2004 Oleg Berngardt. All rights reserved.
Copyright (c) 2004 Alexander Djourik. All rights reserved.
FILE: Владимир Высоцкий - В Тридевятом государстве….flac
  Size: 354773710 Hash: 2DD03955A03EC07E6F9CA531DA99B5B4 Accuracy: -m0
  Conclusion: CDDA 100%
  Signature: 2B392EB4E652CE5ED2B8B811BB70015DE14C812D

CD09 - Это я не вернулся из боя...

Треклист:
01. Братские могилы
02. Так случилось - мужчины ушли...
03. Разведка боем
04. Песня самолета-истребителя
05. Песня летчика
06. Аисты
07. Все ушли на фронт
08. Штрафные батальоны
09. Сыновья уходят в бой
10. О моем старшине
11. Мы вращаем землю
12. Расстрел горного эха
13. Темнота
14. Если где-то в чужой неспокойной ночи...
15. Песня Солодова
16. Военная песня
17. Песня о погибшем летчике
18. Песня Вани у Марии
19. Черные бушлаты
20. Он не вернулся из боя
21. Песня о новом времени
22. В холода, в холода...
Продолжительность: 00:59:26

Отчёт ЕАС&#58;

Код:
Exact Audio Copy V1.0 beta 3 from 29. August 2011
Отчёт EAC об извлечении, выполненном 19. августа 2016, 19:35
Владимир Высоцкий / Это я не вернулся из боя…
Дисковод: ASUS    DRW-24B3ST   Adapter: 3  ID: 0
Режим чтения                 : Достоверность
Использование точного потока : Да
Отключение кэша аудио        : Да
Использование указателей C2  : Нет
Коррекция смещения при чтении                     : 6
Способность читать области Lead-in и Lead-out     : Нет
Заполнение пропущенных сэмплов тишиной            : Да
Удаление блоков с тишиной в начале и конце        : Нет
При вычислениях CRC использовались нулевые сэмплы : Да
Интерфейс                                         : Встроенный Win32-интерфейс для Win NT/2000
Выходной формат          : Пользовательский кодировщик
Выбранный битрейт        : 128 kBit/s
Качество                 : Высокий
Добавление ID3-тега      : Нет
Утилита сжатия           : C:\Program Files (x86)\Exact Audio Copy\Flac\flac.exe
Дополнительные параметры :  -V -8 -T "Date=%year%" -T "Genre=%genre%" %source%
TOC извлечённого CD
     Трек |   Старт  | Длительность | Начальный сектор | Конечный сектор
    ---------------------------------------------------------------------
       1  |  0:00.00 |    1:27.53   |           0      |       6577
       2  |  1:27.53 |    3:16.52   |        6578      |      21329
       3  |  4:44.30 |    2:22.44   |       21330      |      32023
       4  |  7:06.74 |    3:24.49   |       32024      |      47372
       5  | 10:31.48 |    2:03.43   |       47373      |      56640
       6  | 12:35.16 |    3:58.17   |       56641      |      74507
       7  | 16:33.33 |    2:18.13   |       74508      |      84870
       8  | 18:51.46 |    2:51.53   |       84871      |      97748
       9  | 21:43.24 |    2:23.31   |       97749      |     108504
      10  | 24:06.55 |    3:11.74   |      108505      |     122903
      11  | 27:18.54 |    3:13.64   |      122904      |     137442
      12  | 30:32.43 |    2:16.38   |      137443      |     147680
      13  | 32:49.06 |    1:21.02   |      147681      |     153757
      14  | 34:10.08 |    4:26.51   |      153758      |     173758
      15  | 38:36.59 |    2:27.39   |      173759      |     184822
      16  | 41:04.23 |    2:06.12   |      184823      |     194284
      17  | 43:10.35 |    3:59.74   |      194285      |     212283
      18  | 47:10.34 |    2:34.48   |      212284      |     223881
      19  | 49:45.07 |    2:57.17   |      223882      |     237173
      20  | 52:42.24 |    2:33.15   |      237174      |     248663
      21  | 55:15.39 |    2:10.55   |      248664      |     258468
      22  | 57:26.19 |    1:59.48   |      258469      |     267441
Характеристики диапазона извлечения и сообщения об ошибках
Выбранный диапазон
     Имя файла E:\РАЗДАЧИ\NNMClub-eloychik ®\Владимир Высоцкий - Новое звучание!!! [NNMClub.to]\CD9 - Это я не вернулся из боя…\Владимир Высоцкий - Это я не вернулся из боя….wav
     Пиковый уровень 100.0 %
     Скорость извлечения 6.0 X
     Качество диапазона 100.0 %
     CRC теста B580490B
     CRC копии B580490B
     Копирование... OK
Ошибок не произошло
AccurateRip: сводка
Трек  1  отсутствует в базе данных
Трек  2  отсутствует в базе данных
Трек  3  отсутствует в базе данных
Трек  4  отсутствует в базе данных
Трек  5  отсутствует в базе данных
Трек  6  отсутствует в базе данных
Трек  7  отсутствует в базе данных
Трек  8  отсутствует в базе данных
Трек  9  отсутствует в базе данных
Трек 10  отсутствует в базе данных
Трек 11  отсутствует в базе данных
Трек 12  отсутствует в базе данных
Трек 13  отсутствует в базе данных
Трек 14  отсутствует в базе данных
Трек 15  отсутствует в базе данных
Трек 16  отсутствует в базе данных
Трек 17  отсутствует в базе данных
Трек 18  отсутствует в базе данных
Трек 19  отсутствует в базе данных
Трек 20  отсутствует в базе данных
Трек 21  отсутствует в базе данных
Трек 22  отсутствует в базе данных
Ни одного трека нет в базе AccurateRip
Конец отчёта
==== Контрольная сумма отчёта FEF026E1037523EB35B2A7B537CC53C9100943B99DF0D3FAEAFC58868CD80B98 ====

Cue Sheet (.cue&#41;&#58;

Код:
REM DATE 2005
REM DISCID 4A0DED16
REM COMMENT "ExactAudioCopy v1.0b3"
PERFORMER "Владимир Высоцкий"
TITLE "Это я не вернулся из боя…"
FILE "Владимир Высоцкий - Это я не вернулся из боя….flac" WAVE
  TRACK 01 AUDIO
    TITLE "Братские могилы"
    PERFORMER "Владимир Высоцкий"
    FLAGS DCP
    INDEX 01 00:00:00
  TRACK 02 AUDIO
    TITLE "Так случилось — мужчины ушли…"
    PERFORMER "Владимир Высоцкий"
    FLAGS DCP
    INDEX 00 01:25:52
    INDEX 01 01:27:53
  TRACK 03 AUDIO
    TITLE "Разведка боем"
    PERFORMER "Владимир Высоцкий"
    FLAGS DCP
    INDEX 00 04:42:30
    INDEX 01 04:44:30
  TRACK 04 AUDIO
    TITLE "Песня самолёта-истребителя"
    PERFORMER "Владимир Высоцкий"
    FLAGS DCP
    INDEX 00 07:04:73
    INDEX 01 07:06:74
  TRACK 05 AUDIO
    TITLE "Песня лётчика"
    PERFORMER "Владимир Высоцкий"
    FLAGS DCP
    INDEX 00 10:29:48
    INDEX 01 10:31:48
  TRACK 06 AUDIO
    TITLE "Аисты"
    PERFORMER "Владимир Высоцкий"
    FLAGS DCP
    INDEX 00 12:33:15
    INDEX 01 12:35:16
  TRACK 07 AUDIO
    TITLE "Все ушли на фронт"
    PERFORMER "Владимир Высоцкий"
    FLAGS DCP
    INDEX 00 16:31:33
    INDEX 01 16:33:33
  TRACK 08 AUDIO
    TITLE "Штрафные батальоны"
    PERFORMER "Владимир Высоцкий"
    FLAGS DCP
    INDEX 00 18:49:45
    INDEX 01 18:51:46
  TRACK 09 AUDIO
    TITLE "Сыновья уходят в бой"
    PERFORMER "Владимир Высоцкий"
    FLAGS DCP
    INDEX 00 21:41:24
    INDEX 01 21:43:24
  TRACK 10 AUDIO
    TITLE "О моём старшине"
    PERFORMER "Владимир Высоцкий"
    FLAGS DCP
    INDEX 00 24:04:54
    INDEX 01 24:06:55
  TRACK 11 AUDIO
    TITLE "Мы вращаем землю"
    PERFORMER "Владимир Высоцкий"
    FLAGS DCP
    INDEX 00 27:16:53
    INDEX 01 27:18:54
  TRACK 12 AUDIO
    TITLE "Расстрел горного эха"
    PERFORMER "Владимир Высоцкий"
    FLAGS DCP
    INDEX 00 30:30:43
    INDEX 01 30:32:43
  TRACK 13 AUDIO
    TITLE "Темнота"
    PERFORMER "Владимир Высоцкий"
    FLAGS DCP
    INDEX 00 32:47:06
    INDEX 01 32:49:06
  TRACK 14 AUDIO
    TITLE "Если где-то в чужой неспокойной ночи"
    PERFORMER "Владимир Высоцкий"
    FLAGS DCP
    INDEX 00 34:08:08
    INDEX 01 34:10:08
  TRACK 15 AUDIO
    TITLE "Песня Солодова"
    PERFORMER "Владимир Высоцкий"
    FLAGS DCP
    INDEX 00 38:34:59
    INDEX 01 38:36:59
  TRACK 16 AUDIO
    TITLE "Военная песня"
    PERFORMER "Владимир Высоцкий"
    FLAGS DCP
    INDEX 00 41:02:22
    INDEX 01 41:04:23
  TRACK 17 AUDIO
    TITLE "Песня о погибшем лётчике"
    PERFORMER "Владимир Высоцкий"
    FLAGS DCP
    INDEX 00 43:08:35
    INDEX 01 43:10:35
  TRACK 18 AUDIO
    TITLE "Песня Вани у Марии"
    PERFORMER "Владимир Высоцкий"
    FLAGS DCP
    INDEX 00 47:08:34
    INDEX 01 47:10:34
  TRACK 19 AUDIO
    TITLE "Чёрные бушлаты"
    PERFORMER "Владимир Высоцкий"
    FLAGS DCP
    INDEX 00 49:43:07
    INDEX 01 49:45:07
  TRACK 20 AUDIO
    TITLE "Он не вернулся из боя"
    PERFORMER "Владимир Высоцкий"
    FLAGS DCP
    INDEX 00 52:40:23
    INDEX 01 52:42:24
  TRACK 21 AUDIO
    TITLE "Песня о новом времени"
    PERFORMER "Владимир Высоцкий"
    FLAGS DCP
    INDEX 00 55:13:39
    INDEX 01 55:15:39
  TRACK 22 AUDIO
    TITLE "В холода, в холода…"
    PERFORMER "Владимир Высоцкий"
    FLAGS DCP
    INDEX 00 57:24:19
    INDEX 01 57:26:19

Отчёт auCDtect Task manager&#58;

Код:
-----------------------
DON'T MODIFY THIS FILE
-----------------------
PERFORMER: auCDtect Task Manager, ver. 1.6.0 RC1 build 1.6.0.1
Copyright (c) 2008-2010 y-soft. All rights reserved
http://y-soft.org
ANALYZER: auCDtect: CD records authenticity detector, version 0.8.2
Copyright (c) 2004 Oleg Berngardt. All rights reserved.
Copyright (c) 2004 Alexander Djourik. All rights reserved.
FILE: Владимир Высоцкий - Это я не вернулся из боя….flac
  Size: 349380170 Hash: 329A9E24AF773C96604DB319AD4E3319 Accuracy: -m0
  Conclusion: CDDA 100%
  Signature: 8D8DEF1A977E9B9015F1A740FA56980AE420540A

CD10 - Всё не так, ребята...

Треклист:
01. Серебряные струны
02. Моя цыганская
03. Зарисовка о Ленинграде
04. Дайте собакам мяса
05. Мне ребята сказали про такую наколку..
06. За меня невеста отрыдает честно...
07. Смотрины
08. Вот главный вход, но только вот...
09. Один музыкант объяснил мне пространно...
10. Тот, кто раньше с нею был
11. Сколько я ни старался...
12. Большой Каретный
13. Оплавляются свечи...
14. Она была в Париже
15. Проложите, проложите...
16. Веселая покойницкая
17. Гололед
18. Москва - Одесса
19. Здесь лапы у елей дрожат на весу...
20. Про черта
21. Две судьбы
Продолжительность: 00:58:22

Отчёт ЕАС&#58;

Код:
Exact Audio Copy V1.0 beta 3 from 29. August 2011
Отчёт EAC об извлечении, выполненном 19. августа 2016, 20:05
Владимир Высоцкий / Всё не так, ребята...
Дисковод: ASUS    DRW-24B3ST   Adapter: 3  ID: 0
Режим чтения                 : Достоверность
Использование точного потока : Да
Отключение кэша аудио        : Да
Использование указателей C2  : Нет
Коррекция смещения при чтении                     : 6
Способность читать области Lead-in и Lead-out     : Нет
Заполнение пропущенных сэмплов тишиной            : Да
Удаление блоков с тишиной в начале и конце        : Нет
При вычислениях CRC использовались нулевые сэмплы : Да
Интерфейс                                         : Встроенный Win32-интерфейс для Win NT/2000
Выходной формат          : Пользовательский кодировщик
Выбранный битрейт        : 128 kBit/s
Качество                 : Высокий
Добавление ID3-тега      : Нет
Утилита сжатия           : C:\Program Files (x86)\Exact Audio Copy\Flac\flac.exe
Дополнительные параметры :  -V -8 -T "Date=%year%" -T "Genre=%genre%" %source%
TOC извлечённого CD
     Трек |   Старт  | Длительность | Начальный сектор | Конечный сектор
    ---------------------------------------------------------------------
       1  |  0:00.00 |    2:46.04   |           0      |      12453
       2  |  2:46.04 |    4:21.50   |       12454      |      32078
       3  |  7:07.54 |    0:59.43   |       32079      |      36546
       4  |  8:07.22 |    1:47.07   |       36547      |      44578
       5  |  9:54.29 |    2:20.68   |       44579      |      55146
       6  | 12:15.22 |    2:49.66   |       55147      |      67887
       7  | 15:05.13 |    4:29.58   |       67888      |      88120
       8  | 19:34.71 |    2:58.66   |       88121      |     101536
       9  | 22:33.62 |    1:59.37   |      101537      |     110498
      10  | 24:33.24 |    3:01.11   |      110499      |     124084
      11  | 27:34.35 |    2:24.07   |      124085      |     134891
      12  | 29:58.42 |    1:49.18   |      134892      |     143084
      13  | 31:47.60 |    2:07.24   |      143085      |     152633
      14  | 33:55.09 |    1:49.55   |      152634      |     160863
      15  | 35:44.64 |    1:17.10   |      160864      |     166648
      16  | 37:01.74 |    2:57.08   |      166649      |     179931
      17  | 39:59.07 |    1:37.39   |      179932      |     187245
      18  | 41:36.46 |    2:34.30   |      187246      |     198825
      19  | 44:11.01 |    3:45.07   |      198826      |     215707
      20  | 47:56.08 |    2:14.04   |      215708      |     225761
      21  | 50:10.12 |    8:11.53   |      225762      |     262639
Характеристики диапазона извлечения и сообщения об ошибках
Выбранный диапазон
     Имя файла E:\РАЗДАЧИ\NNMClub-eloychik ®\Владимир Высоцкий - Новое звучание!!! [NNMClub.to]\CD10 - Всё не так, ребята\Владимир Высоцкий - Всё не так, ребята....wav
     Пиковый уровень 85.4 %
     Скорость извлечения 4.5 X
     Качество диапазона 100.0 %
     CRC теста E30708E6
     CRC копии E30708E6
     Копирование... OK
Ошибок не произошло
AccurateRip: сводка
Трек  1  точность не определена (достоверность 2)  [109733B1], AccurateRip вернул [5B7E7A1B]  (AR v2)
Трек  2  точность не определена (достоверность 2)  [411F18A4], AccurateRip вернул [94236EC0]  (AR v2)
Трек  3  точность не определена (достоверность 2)  [DACAE109], AccurateRip вернул [2A6367DA]  (AR v2)
Трек  4  точность не определена (достоверность 2)  [C860E1CA], AccurateRip вернул [85396FFE]  (AR v2)
Трек  5  точность не определена (достоверность 2)  [6D7A2B35], AccurateRip вернул [2DE5A44F]  (AR v2)
Трек  6  точность не определена (достоверность 2)  [E6380BA3], AccurateRip вернул [7AFD6713]  (AR v2)
Трек  7  точность не определена (достоверность 2)  [052EA1D2], AccurateRip вернул [F45CA8AF]  (AR v2)
Трек  8  точность не определена (достоверность 2)  [1E850FDE], AccurateRip вернул [55578E2C]  (AR v2)
Трек  9  точность не определена (достоверность 2)  [091BED65], AccurateRip вернул [0518A8ED]  (AR v2)
Трек 10  точность не определена (достоверность 2)  [D258A2F9], AccurateRip вернул [16AD1CCD]  (AR v2)
Трек 11  точность не определена (достоверность 2)  [5BDECE3F], AccurateRip вернул [37EE42FC]  (AR v2)
Трек 12  точность не определена (достоверность 2)  [B97AA2FE], AccurateRip вернул [4A5F5FEE]  (AR v2)
Трек 13  точность не определена (достоверность 2)  [713F2547], AccurateRip вернул [6472F90E]  (AR v2)
Трек 14  точность не определена (достоверность 2)  [2FA6F29E], AccurateRip вернул [165A83AF]  (AR v2)
Трек 15  точность не определена (достоверность 2)  [E5CFE145], AccurateRip вернул [26E1CAB9]  (AR v2)
Трек 16  точность не определена (достоверность 2)  [9301BDEC], AccurateRip вернул [09CFB8D3]  (AR v2)
Трек 17  точность не определена (достоверность 2)  [5704F63E], AccurateRip вернул [84449D6A]  (AR v2)
Трек 18  точность не определена (достоверность 2)  [9072A4DB], AccurateRip вернул [D9477D5C]  (AR v2)
Трек 19  точность не определена (достоверность 2)  [4F2CC9A6], AccurateRip вернул [7DD36F8D]  (AR v2)
Трек 20  точность не определена (достоверность 2)  [32A952FF], AccurateRip вернул [B3DE4A14]  (AR v2)
Трек 21  точность не определена (достоверность 2)  [DAA0E274], AccurateRip вернул [AB093ABB]  (AR v2)
Ни один трек не прошёл проверки на точность
В вашей базе может быть иной вариант штамповки диска
Конец отчёта
==== Контрольная сумма отчёта ADA949828B11130382B0496B68075531DA86A3FEE6BF6CEF3C965CF63CE2F033 ====

Cue Sheet (.cue&#41;&#58;

Код:
REM GENRE Chanson
REM DATE 2004
REM DISCID 360DAD15
REM COMMENT "ExactAudioCopy v1.0b3"
PERFORMER "Владимир Высоцкий"
TITLE "Всё не так, ребята..."
FILE "Владимир Высоцкий - Всё не так, ребята....flac" WAVE
  TRACK 01 AUDIO
    TITLE "Серебрянные струны"
    PERFORMER "Владимир Высоцкий"
    FLAGS DCP
    INDEX 01 00:00:00
  TRACK 02 AUDIO
    TITLE "Моя Цыганская"
    PERFORMER "Владимир Высоцкий"
    FLAGS DCP
    INDEX 00 02:44:04
    INDEX 01 02:46:04
  TRACK 03 AUDIO
    TITLE "Зарисовка о Ленинграде"
    PERFORMER "Владимир Высоцкий"
    FLAGS DCP
    INDEX 00 07:05:53
    INDEX 01 07:07:54
  TRACK 04 AUDIO
    TITLE "Дайте собакам мяса"
    PERFORMER "Владимир Высоцкий"
    FLAGS DCP
    INDEX 00 08:05:21
    INDEX 01 08:07:22
  TRACK 05 AUDIO
    TITLE "Мне ребята сказали про такую наколку…"
    PERFORMER "Владимир Высоцкий"
    FLAGS DCP
    INDEX 00 09:52:29
    INDEX 01 09:54:29
  TRACK 06 AUDIO
    TITLE "За меня невеста отрыдает честно…"
    PERFORMER "Владимир Высоцкий"
    FLAGS DCP
    INDEX 00 12:13:22
    INDEX 01 12:15:22
  TRACK 07 AUDIO
    TITLE "Смотрины"
    PERFORMER "Владимир Высоцкий"
    FLAGS DCP
    INDEX 00 15:03:12
    INDEX 01 15:05:13
  TRACK 08 AUDIO
    TITLE "Вот — главный вход, но только вот…"
    PERFORMER "Владимир Высоцкий"
    FLAGS DCP
    INDEX 00 19:32:71
    INDEX 01 19:34:71
  TRACK 09 AUDIO
    TITLE "Один музыкант объяснил мне пространно…"
    PERFORMER "Владимир Высоцкий"
    FLAGS DCP
    INDEX 00 22:31:60
    INDEX 01 22:33:62
  TRACK 10 AUDIO
    TITLE "Тот, кто раньше с нею был"
    PERFORMER "Владимир Высоцкий"
    FLAGS DCP
    INDEX 00 24:31:23
    INDEX 01 24:33:24
  TRACK 11 AUDIO
    TITLE "Сколько я ни старался…"
    PERFORMER "Владимир Высоцкий"
    FLAGS DCP
    INDEX 00 27:32:34
    INDEX 01 27:34:35
  TRACK 12 AUDIO
    TITLE "Большой Каретный"
    PERFORMER "Владимир Высоцкий"
    FLAGS DCP
    INDEX 00 29:56:42
    INDEX 01 29:58:42
  TRACK 13 AUDIO
    TITLE "Оплавляются свечи…"
    PERFORMER "Владимир Высоцкий"
    FLAGS DCP
    INDEX 00 31:45:58
    INDEX 01 31:47:60
  TRACK 14 AUDIO
    TITLE "Она была в Париже"
    PERFORMER "Владимир Высоцкий"
    FLAGS DCP
    INDEX 00 33:53:08
    INDEX 01 33:55:09
  TRACK 15 AUDIO
    TITLE "Проложите, проложите…"
    PERFORMER "Владимир Высоцкий"
    FLAGS DCP
    INDEX 00 35:42:63
    INDEX 01 35:44:64
  TRACK 16 AUDIO
    TITLE "Веселая покойницкая"
    PERFORMER "Владимир Высоцкий"
    FLAGS DCP
    INDEX 00 36:59:73
    INDEX 01 37:01:74
  TRACK 17 AUDIO
    TITLE "Гололёд"
    PERFORMER "Владимир Высоцкий"
    FLAGS DCP
    INDEX 00 39:57:07
    INDEX 01 39:59:07
  TRACK 18 AUDIO
    TITLE "Москва — Одесса"
    PERFORMER "Владимир Высоцкий"
    FLAGS DCP
    INDEX 00 41:34:46
    INDEX 01 41:36:46
  TRACK 19 AUDIO
    TITLE "Здесь лапы у елей дрожат на весу…"
    PERFORMER "Владимир Высоцкий"
    FLAGS DCP
    INDEX 00 44:09:00
    INDEX 01 44:11:01
  TRACK 20 AUDIO
    TITLE "Про чёрта"
    PERFORMER "Владимир Высоцкий"
    FLAGS DCP
    INDEX 00 47:54:08
    INDEX 01 47:56:08
  TRACK 21 AUDIO
    TITLE "Две судьбы"
    PERFORMER "Владимир Высоцкий"
    FLAGS DCP
    INDEX 00 50:08:11
    INDEX 01 50:10:12

Отчёт auCDtect Task manager&#58;

Код:
-----------------------
DON'T MODIFY THIS FILE
-----------------------
PERFORMER: auCDtect Task Manager, ver. 1.6.0 RC1 build 1.6.0.1
Copyright (c) 2008-2010 y-soft. All rights reserved
http://y-soft.org
ANALYZER: auCDtect: CD records authenticity detector, version 0.8.2
Copyright (c) 2004 Oleg Berngardt. All rights reserved.
Copyright (c) 2004 Alexander Djourik. All rights reserved.
FILE: Владимир Высоцкий - Всё не так, ребята....flac
  Size: 337428151 Hash: BA8427AF6ACF286B6DC83CDFC5E48EAC Accuracy: -m0
  Conclusion: CDDA 100%
  Signature: 19948F2220390EB73593C9366D670A24B358FEC0

-

-
 
Similar theme
Forum Topic Author Torrent Replies Last Post
./templates/default/images/folder_dl.gif Фантастика, фэнтези, ужасы, мистика Владимир Охременко | На краю сознания (2016) [FB2] }{@R0N
1 | 0

0 | 1427

4

2019-01-13 18:01
}{@R0N Latest
./templates/default/images/folder_dl.gif Игровые и Компьютерные журналы Владимир Дронов | Django 2.1. Практика создания веб-сайтов на Python [+ Code] (2019) [PDF] }{@R0N
1 | 0

0 | 1878

3

2019-03-13 18:12
}{@R0N Latest
./templates/default/images/folder_dl.gif Фантастика, фэнтези, ужасы, мистика Владимир Поселягин | Назад в будущее (2019) [MP3] }{@R0N
1 | 0

0 | 1022

2

2019-06-11 23:04
}{@R0N Latest
Display posts from previous:    
Reply to topic

The time now is: Today 05:09

All times are GMT + 3 Hours



You cannot post new topics in this forum
You cannot reply to topics in this forum
You cannot edit your posts in this forum
You cannot delete your posts in this forum
You cannot vote in polls in this forum
You cannot attach files in this forum
You cannot download files in this forum