Сегодня идет свободное скачивание без начисления Download

Кошка на раскаленной крыше / Cat on a Hot Tin Roof (Ричард Брукс) [1958, Драма, Мелодрама BDRip-AVC]

Ответить на тему
 
Автор
Сообщение

Russian Mafia ®

Пол:

Стаж: 1 год 7 месяцев

Сообщений: 354

Торрент-статистика

Пост 24-Авг-2016 18:39

[Цитировать]

Производство: США / Avon Productions (II), Metro-Goldwyn-Mayer (MGM)
Жанр: Драма, Мелодрама
Режиссер: Ричард Брукс
Актеры: Элизабет Тейлор, Пол Ньюман, Берл Айвз, Джек Карсон, Джудит Андерсон, Мадлен Шервуд, Ларри Гейтс, Вон Тейлор, Зельда Кливер, Брайан Коркоран
Описание:
Богатый престарелый южанин узнает, что скоро должен умереть. Все члены его жадной семьи, за исключением шалопая-сына, лезут из кожи вон, лишь бы получить наследство.

Продолжительность: 01:48:04
Качество видео: BDRip Сэмпл
Перевод: Многоголосый закадровый, авторский
Язык субтитров: Русский, английский
Вид субтитров: Вшитые отключаемые
Видео: AVC/H.264, 1024x576, ~2950 Kbps
Аудио 1: Русский, AC3, 2 ch, 192 Kbps, 48.0 kHz (MVO, R5)
Аудио 2: Русский, AC3, 2 ch, 192 Kbps, 48.0 kHz (MVO, SomeWax)
Аудио 3: Русский, AC3, 2 ch, 192 Kbps, 48.0 kHz (АVO, В.Горчаков)
Аудио 4: Английский, AC3, 2 ch, 192 Kbps, 48.0 kHz (Оригинал)

Mediainfo:

Код:
General
Unique ID                                : 243430207606255300276382388356693292193 (0xB722F3DEE2F4F4BD84941A06E142F4A1)
Complete name                            : F:\Downloads\Кошка на раскаленной крыше. 1958. NNMCLUB.mkv
Format                                   : Matroska
Format version                           : Version 4 / Version 2
File size                                : 2.81 GiB
Duration                                 : 1h 48mn
Overall bit rate                         : 3 721 Kbps
Encoded date                             : UTC 2016-08-16 13:39:52
Writing application                      : mkvmerge v7.0.0 ('Where We Going') 32bit built on Jun  9 2014 15:08:34
Writing library                          : libebml v1.3.0 + libmatroska v1.4.1
_STATISTICS_WRITING_APP                  : mkvmerge v7.0.0 ('Where We Going') 32bit built on Jun  9 2014 15:08:34
_STATISTICS_WRITING_DATE_UTC             : 2016-08-16 13:39:52
_STATISTICS_TAGS                         : BPS DURATION NUMBER_OF_FRAMES NUMBER_OF_BYTES
DURATION                                 : 01:44:56.365000000
NUMBER_OF_FRAMES                         : 1608
NUMBER_OF_BYTES                          : 66222
Video
ID                                       : 1
Format                                   : AVC
Format/Info                              : Advanced Video Codec
Format profile                           : [url=mailto:[email protected]][email protected][/url]
Format settings, CABAC                   : Yes
Format settings, ReFrames                : 8 frames
Codec ID                                 : V_MPEG4/ISO/AVC
Duration                                 : 1h 48mn
Bit rate                                 : 2 950 Kbps
Width                                    : 1 024 pixels
Height                                   : 576 pixels
Display aspect ratio                     : 16:9
Frame rate mode                          : Constant
Frame rate                               : 23.976 fps
Color space                              : YUV
Chroma subsampling                       : 4:2:0
Bit depth                                : 8 bits
Scan type                                : Progressive
Bits/(Pixel*Frame)                       : 0.209
Stream size                              : 2.17 GiB (77%)
Title                                    : Cat on a Hot Tin Roof
Writing library                          : x264 core 125 r2208 d9d2288
Encoding settings                        : cabac=1 / ref=8 / deblock=1:-1:-1 / analyse=0x3:0x133 / me=umh / subme=9 / psy=1 / psy_rd=1.00:0.10 / mixed_ref=1 / me_range=32 / chroma_me=1 / trellis=2 / 8x8dct=1 / cqm=0 / deadzone=21,11 / fast_pskip=0 / chroma_qp_offset=-3 / threads=6 / lookahead_threads=1 / sliced_threads=0 / nr=0 / decimate=1 / interlaced=0 / bluray_compat=0 / constrained_intra=0 / bframes=3 / b_pyramid=2 / b_adapt=2 / b_bias=0 / direct=3 / weightb=1 / open_gop=0 / weightp=2 / keyint=250 / keyint_min=25 / scenecut=40 / intra_refresh=0 / rc_lookahead=60 / rc=2pass / mbtree=1 / bitrate=2950 / ratetol=1.0 / qcomp=0.60 / qpmin=0 / qpmax=69 / qpstep=4 / cplxblur=20.0 / qblur=0.5 / ip_ratio=1.40 / aq=1:1.00
Language                                 : English
Default                                  : Yes
Forced                                   : No
Audio #1
ID                                       : 2
Format                                   : AC-3
Format/Info                              : Audio Coding 3
Mode extension                           : CM (complete main)
Format settings, Endianness              : Big
Codec ID                                 : A_AC3
Duration                                 : 1h 48mn
Bit rate mode                            : Constant
Bit rate                                 : 192 Kbps
Channel(s)                               : 2 channels
Channel positions                        : Front: L R
Sampling rate                            : 48.0 KHz
Bit depth                                : 16 bits
Compression mode                         : Lossy
Stream size                              : 148 MiB (5%)
Title                                    : Многоголосый закадровый, R5
Language                                 : Russian
Default                                  : Yes
Forced                                   : No
Audio #2
ID                                       : 3
Format                                   : AC-3
Format/Info                              : Audio Coding 3
Mode extension                           : CM (complete main)
Format settings, Endianness              : Big
Codec ID                                 : A_AC3
Duration                                 : 1h 48mn
Bit rate mode                            : Constant
Bit rate                                 : 192 Kbps
Channel(s)                               : 2 channels
Channel positions                        : Front: L R
Sampling rate                            : 48.0 KHz
Bit depth                                : 16 bits
Compression mode                         : Lossy
Stream size                              : 148 MiB (5%)
Title                                    : Многоголосый закадровый, SomeWax
Language                                 : Russian
Default                                  : No
Forced                                   : No
Audio #3
ID                                       : 4
Format                                   : AC-3
Format/Info                              : Audio Coding 3
Mode extension                           : CM (complete main)
Format settings, Endianness              : Big
Codec ID                                 : A_AC3
Duration                                 : 1h 48mn
Bit rate mode                            : Constant
Bit rate                                 : 192 Kbps
Channel(s)                               : 2 channels
Channel positions                        : Front: L R
Sampling rate                            : 48.0 KHz
Bit depth                                : 16 bits
Compression mode                         : Lossy
Stream size                              : 148 MiB (5%)
Title                                    : Авторский, В.Горчаков
Language                                 : Russian
Default                                  : No
Forced                                   : No
Audio #4
ID                                       : 5
Format                                   : AC-3
Format/Info                              : Audio Coding 3
Mode extension                           : CM (complete main)
Format settings, Endianness              : Big
Codec ID                                 : A_AC3
Duration                                 : 1h 48mn
Bit rate mode                            : Constant
Bit rate                                 : 192 Kbps
Channel(s)                               : 2 channels
Channel positions                        : Front: L R
Sampling rate                            : 48.0 KHz
Bit depth                                : 16 bits
Compression mode                         : Lossy
Stream size                              : 148 MiB (5%)
Title                                    : Оригинал
Language                                 : English
Default                                  : No
Forced                                   : No
Text #1
ID                                       : 6
Format                                   : UTF-8
Codec ID                                 : S_TEXT/UTF8
Codec ID/Info                            : UTF-8 Plain Text
Title                                    : R5
Language                                 : Russian
Default                                  : No
Forced                                   : No
Text #2
ID                                       : 7
Format                                   : UTF-8
Codec ID                                 : S_TEXT/UTF8
Codec ID/Info                            : UTF-8 Plain Text
Title                                    : SRT
Language                                 : English
Default                                  : No
Forced                                   : No

Скриншоты

       

Дополнительные скриншоты:

       
Вне форума [Профиль] [ЛС]
Показать сообщения:    
Ответить на тему

Текущее время: Сегодня 17:33

Часовой пояс: GMT + 3



Вы не можете начинать темы
Вы не можете отвечать на сообщения
Вы не можете редактировать свои сообщения
Вы не можете удалять свои сообщения
Вы не можете голосовать в опросах
Вы не можете прикреплять файлы к сообщениям
Вы не можете скачивать файлы