Today is a free download without charge Download

(Garage Rock, Rockabilly) [CD] The 5.6.7.8\'s - ...Can\'t Help It!! - 1992, FLAC (tracks+.cue), lossless

Reply to topic
 
Author
Message

Omen ®

Longevity: 7 years 1 month

Posts: 181090

Торрент-статистика

Post 13-Sep-2016 01:01

[Quote]

The 5.6.7.8's / ...Can't Help It!!
Жанр: Garage Rock, Rockabilly
Носитель: CD
Страна-производитель диска (релиза): US
Год издания: 1992
Издатель (лейбл): Rockville
Номер по каталогу: ROCK 6096-2
Аудиокодек: FLAC (*.flac)
Тип рипа: tracks+.cue
Битрейт аудио: lossless
Продолжительность: 00:40:54
Источник (релизер): вафля
Наличие сканов в содержимом раздачи: да
Треклист:
01 Ah-So! 2:04
02 Let's Have A Party 1:40
03 Pinball Party 3:30
04 Jet Coaster 4:05
05 Wooly Bully 2:10
06 Wild Thing 2:42
07 Bond Girl 3:15
08 Motor Cycle Go-Go-Go! 2:12
09 Fruit Bubble Love 2:29
10 The 5.6.7.8's 2:03
11 Woo Eee 3:14
12 Edie Is A Sweet Candy 3:20
13 I Was A Teenage Cave Woman 3:59
14 Blue Radio 4:31

Лог создания рипа

Exact Audio Copy V1.0 beta 1 from 15. November 2010
EAC extraction logfile from 21. March 2012, 23:13
The 5.6.7.8's / The 5.6.7.8's Can't Help It!
Used drive : PIONEER DVD-RW DVR-219L Adapter: 6 ID: 0
Read mode : SecureUtilize accurate stream : YesDefeat audio cache : YesMake use of C2 pointers : No
Read offset correction : 6Overread into Lead-In and Lead-Out : NoFill up missing offset samples with silence : YesDelete leading and trailing silent blocks : NoNull samples used in CRC calculations : YesUsed interface : Installed external ASPI interface
Used output format : Internal WAV RoutinesSample format : 44.100 Hz; 16 Bit; Stereo
TOC of the extracted CD
Track | Start | Length | Start sector | End sector --------------------------------------------------------- 1 | 0:00.00 | 2:04.13 | 0 | 9312 2 | 2:04.13 | 1:40.00 | 9313 | 16812 3 | 3:44.13 | 3:30.72 | 16813 | 32634 4 | 7:15.10 | 4:05.48 | 32635 | 51057 5 | 11:20.58 | 2:10.52 | 51058 | 60859 6 | 13:31.35 | 2:42.13 | 60860 | 73022 7 | 16:13.48 | 3:15.15 | 73023 | 87662 8 | 19:28.63 | 2:12.37 | 87663 | 97599 9 | 21:41.25 | 2:29.00 | 97600 | 108774 10 | 24:10.25 | 2:03.48 | 108775 | 118047 11 | 26:13.73 | 3:14.17 | 118048 | 132614 12 | 29:28.15 | 3:20.50 | 132615 | 147664 13 | 32:48.65 | 3:59.13 | 147665 | 165602 14 | 36:48.03 | 4:31.55 | 165603 | 185982
Range status and errors
Selected range
Filename C:\_www.AvaxHome.ru\1991- The 5.6.7.8's Can't Help It! [US-CD 1992]\The 5.6.7.8's - The 5.6.7.8's Can't Help It! (ROCK 6096-2).wav
Peak level 98.4 % Extraction speed 0.7 X Range quality 100.0 % Test CRC 0F557932 Copy CRC 0F557932 Copy OK
No errors occurred
AccurateRip summary
Track 1 accurately ripped (confidence 2) [A8C73D46]Track 2 accurately ripped (confidence 2) [F57DD0EB]Track 3 accurately ripped (confidence 2) [097AC3F1]Track 4 accurately ripped (confidence 2) [0910AF89]Track 5 accurately ripped (confidence 2) [4EB5660D]Track 6 accurately ripped (confidence 2) [C3F33131]Track 7 accurately ripped (confidence 2) [0B938123]Track 8 accurately ripped (confidence 2) [4558CDFE]Track 9 accurately ripped (confidence 2) [4993DABC]Track 10 accurately ripped (confidence 2) [FE4CB11E]Track 11 accurately ripped (confidence 2) [30FF727B]Track 12 accurately ripped (confidence 2) [FA475D0A]Track 13 accurately ripped (confidence 2) [AA529565]Track 14 accurately ripped (confidence 2) [90742379]
All tracks accurately ripped
End of status report
==== Log checksum EBCC374E226606DC743F376A5ADE5011E01AB5EBDFED9674C506C2B14E19E661 ====

Содержание индексной карты (.CUE)

REM GENRE GarageREM DATE 1991REM DISCID A709AF0EREM COMMENT "ExactAudioCopy v1.0b1"CATALOG 0000000000000PERFORMER "The 5.6.7.8's"TITLE "The 5.6.7.8's Can't Help It!"FILE "The 5.6.7.8's - The 5.6.7.8's Can't Help It! (ROCK 6096-2).wav" WAVE TRACK 01 AUDIO TITLE "Ah-So!" PERFORMER "The 5.6.7.8's" INDEX 01 00:00:00 TRACK 02 AUDIO TITLE "Let's Have A Party" PERFORMER "The 5.6.7.8's" INDEX 00 02:01:68 INDEX 01 02:04:13 TRACK 03 AUDIO TITLE "Pinball Party" PERFORMER "The 5.6.7.8's" INDEX 00 03:41:55 INDEX 01 03:44:13 TRACK 04 AUDIO TITLE "Jet Coaster" PERFORMER "The 5.6.7.8's" INDEX 00 07:13:48 INDEX 01 07:15:10 TRACK 05 AUDIO TITLE "Wooly Bully" PERFORMER "The 5.6.7.8's" INDEX 00 11:18:73 INDEX 01 11:20:58 TRACK 06 AUDIO TITLE "Wild Thing" PERFORMER "The 5.6.7.8's" INDEX 00 13:29:58 INDEX 01 13:31:35 TRACK 07 AUDIO TITLE "Bond Girl" PERFORMER "The 5.6.7.8's" INDEX 00 16:11:45 INDEX 01 16:13:48 TRACK 08 AUDIO TITLE "Motor Cycle Go-Go-Go!" PERFORMER "The 5.6.7.8's" INDEX 00 19:26:00 INDEX 01 19:28:63 TRACK 09 AUDIO TITLE "Fruit Bubble Love" PERFORMER "The 5.6.7.8's" INDEX 00 21:39:55 INDEX 01 21:41:25 TRACK 10 AUDIO TITLE "The 5.6.7.8's" PERFORMER "The 5.6.7.8's" INDEX 00 24:07:28 INDEX 01 24:10:25 TRACK 11 AUDIO TITLE "Woo Eee" PERFORMER "The 5.6.7.8's" INDEX 00 26:12:25 INDEX 01 26:13:73 TRACK 12 AUDIO TITLE "Edie Is A Sweet Candy" PERFORMER "The 5.6.7.8's" INDEX 00 29:26:38 INDEX 01 29:28:15 TRACK 13 AUDIO TITLE "I Was A Teenage Cave Woman" PERFORMER "The 5.6.7.8's" INDEX 00 32:47:00 INDEX 01 32:48:65 TRACK 14 AUDIO TITLE "Blue Radio" PERFORMER "The 5.6.7.8's" INDEX 00 36:46:35 INDEX 01 36:48:03
Other forum [Profile] [PM]
Display posts from previous:    
Reply to topic

The time now is: Today 16:57

All times are GMT + 3 Hours



You cannot post new topics in this forum
You cannot reply to topics in this forum
You cannot edit your posts in this forum
You cannot delete your posts in this forum
You cannot vote in polls in this forum
You cannot attach files in this forum
You cannot download files in this forum