Сегодня идет свободное скачивание без начисления Download

Придорожная закусочная / Придорожное заведение / Дом у дороги / Road House (Рауди Херрингтон / Rowdy Herrington) [1989 г., боевик, триллер, мелодрама, драма, криминал, BDRip 1080p]

Ответить на тему
 
Автор
Сообщение

Delia ®

Пол:

Стаж: 6 лет 7 месяцев

Сообщений: 1930

Торрент-статистика

Пост 19-Сен-2012 08:31

[Цитировать]

-Придорожная закусочная / Придорожное заведение / Дом у дорогиRoad House«Dalton's the best bouncer in the business. His nights are filled with fast action, hot music and beautiful women. It's a dirty job, but somebody's got to do it.»-- Год выпуска: 1989
Страна: США
Жанр: боевик, триллер, криминал
Продолжительность: 01:54:13
Перевод: Профессиональный (многоголосый, закадровый)
Режиссер: Роуди Херрингтон / Rowdy Herrington
Сценарий: Дэвид Ли Генри / David Lee Henry, Хилари Хенкин / Hilary Henkin
Продюсер: Тим Мур / Tim Moore, Стив Перри / Steve Perry, Джоэл Силвер / Joel Silver
Оператор: Дин Канди / Dean Cundey
Композитор: Мартин Брайли / Martin Briley, Майкл Кэмен / Michael Kamen, Уилли Найл / Willie Nile, Дэвид Бартоломью / David Bartholomew, Уилли Диксон / Willie Dixon
В ролях:
Патрик Суэйзи (James Dalton, Head Bouncer Double Deuce Club), Келли Линч (Dr. Elizabeth Clay), Сэм Эллиотт (Wade Garrett), Бен Газзара (Brad Wesley, Jasper Kingpin), Маршалл Р. Тиг (Jimmy, Wesley's No.1 Thug), Джули Майклс (Denise), Ред Уэст (Red Webster, Red's Auto Parts Owner), Саншайн Паркер (Emmet, Dalton's Landlord), Джефф Хили (Cody, Band Singer at Double Deuce), Кевин Тай (Frank Tilghman, Owner of Double Deuce), Джон Доу (Pat McGurn, Wesley's Nephew), Кэтлин Уилхойт (Carrie Ann, Barmaid, Singer at Double Deuce)
Описание: Далтон - легендарный вышибала, который прибывает в Джаспер, штат Миссури с определенной целью: восстановить порядок в небезопасном баре Двойная порция.
По мере того, как он избавляет бар от головорезов, хулиганов и наемных убийц, крепчает гнев их работодателя - печально известного рэкетира Брэда Уэсли. Город живет в страхе перед Уэсли, но Далтон готов действовать!
--Бюджет: $17 000 000
Сборы в США: $30 050 028
Мировая премьера: 19 мая 1989
Релиз на DVD: 28 августа 2008, «Двадцатый Век Фокс СНГ»-
MPAA: - Лицам до 17 лет обязательно присутствие взрослого-Релиз группы: -
Качество: BDRip
Контейнер: MKV
Видео: AVC, 1920x816 (2.35:1), 6599 kbps, 23,976 fps, 0,176 bpp
Аудио №1: русский /; AC3 /; 2.0 /; 48 kHz /; 192 kbps /; 16 bit; |СТС|
Аудио №2: русский /; AC3 /; 2.0 /; 48 kHz /; 160 kbps /; 16 bit; || НТВ
Субтитры №1: русские
Субтитры №2: английские
Навигация по главам: есть
--

Media Info

General
Unique ID : 217312983245266836690080479122238823738 (0xA37CF54ADDC1A973988FD62914E95D3A)
Complete name : E:\торрент\Road House (1989)BDRip-F.HD.mkv
Format : Matroska
Format version : Version 2
File size : 5.54 GiB
Duration : 1h 54mn
Overall bit rate : 6 949 Kbps
Encoded date : UTC 2012-09-19 03:40:04
Writing application : mkvmerge v5.4.0 ('Piper') built on Mar 10 2012 13:34:39
Writing library : libebml v1.2.3 + libmatroska v1.3.0
Video
ID : 1
Format : AVC
Format/Info : Advanced Video Codec
Format profile : [email protected]
Format settings, CABAC : Yes
Format settings, ReFrames : 5 frames
Codec ID : V_MPEG4/ISO/AVC
Duration : 1h 54mn
Bit rate : 6 599 Kbps
Width : 1 920 pixels
Height : 816 pixels
Display aspect ratio : 2.35:1
Frame rate : 23.976 fps
Color space : YUV
Chroma subsampling : 4:2:0
Bit depth : 8 bits
Scan type : Progressive
Bits/(Pixel*Frame) : 0.176
Stream size : 5.15 GiB (93%)
Writing library : x264 core 125 r2208 d9d2288
Encoding settings : cabac=1 / ref=5 / deblock=1:-2:-2 / analyse=0x3:0x133 / me=umh / subme=10 / psy=1 / psy_rd=0.90:0.20 / mixed_ref=1 / me_range=48 / chroma_me=1 / trellis=2 / 8x8dct=1 / cqm=0 / deadzone=21,11 / fast_pskip=0 / chroma_qp_offset=1 / threads=6 / lookahead_threads=1 / sliced_threads=0 / nr=0 / decimate=1 / interlaced=0 / bluray_compat=0 / constrained_intra=0 / bframes=11 / b_pyramid=2 / b_adapt=2 / b_bias=0 / direct=3 / weightb=1 / open_gop=0 / weightp=2 / keyint=240 / keyint_min=23 / scenecut=40 / intra_refresh=0 / rc=2pass / mbtree=0 / bitrate=6599 / ratetol=1.0 / qcomp=0.70 / qpmin=10 / qpmax=51 / qpstep=4 / cplxblur=20.0 / qblur=0.5 / ip_ratio=1.40 / pb_ratio=1.30 / aq=1:0.80
Language : English
Default : Yes
Forced : No
Audio #1
ID : 2
Format : AC-3
Format/Info : Audio Coding 3
Mode extension : CM (complete main)
Codec ID : A_AC3
Duration : 1h 54mn
Bit rate mode : Constant
Bit rate : 192 Kbps
Channel(s) : 2 channels
Channel positions : Front: L R
Sampling rate : 48.0 KHz
Bit depth : 16 bits
Compression mode : Lossy
Delay relative to video : 1s 84ms
Stream size : 157 MiB (3%)
Title : СТС
Language : Russian
Default : Yes
Forced : No
Audio #2
ID : 3
Format : AC-3
Format/Info : Audio Coding 3
Mode extension : CM (complete main)
Codec ID : A_AC3
Duration : 1h 54mn
Bit rate mode : Constant
Bit rate : 160 Kbps
Channel(s) : 2 channels
Channel positions : Front: L R
Sampling rate : 48.0 KHz
Bit depth : 16 bits
Compression mode : Lossy
Delay relative to video : 2s 2ms
Stream size : 131 MiB (2%)
Title : НТВ
Language : Russian
Default : No
Forced : No
Text #1
ID : 4
Format : UTF-8
Codec ID : S_TEXT/UTF8
Codec ID/Info : UTF-8 Plain Text
Language : Russian
Default : No
Forced : No
Text #2
ID : 5
Format : UTF-8
Codec ID : S_TEXT/UTF8
Codec ID/Info : UTF-8 Plain Text
Language : English
Default : No
Forced : No
Menu
00:00:00.000 : en:Chapter 01
00:04:10.291 : en:Chapter 02
00:06:23.383 : en:Chapter 03
00:09:46.669 : en:Chapter 04
00:12:36.505 : en:Chapter 05
00:16:24.942 : en:Chapter 06
00:21:58.650 : en:Chapter 07
00:25:43.166 : en:Chapter 08
00:29:46.701 : en:Chapter 09
00:32:23.066 : en:Chapter 10
00:36:41.824 : en:Chapter 11
00:39:13.184 : en:Chapter 12
00:42:06.565 : en:Chapter 13
00:46:01.925 : en:Chapter 14
00:47:46.738 : en:Chapter 15
00:51:03.018 : en:Chapter 16
00:53:56.107 : en:Chapter 17
00:57:45.336 : en:Chapter 18
00:59:41.703 : en:Chapter 19
01:06:28.067 : en:Chapter 20
01:10:56.585 : en:Chapter 21
01:15:47.292 : en:Chapter 22
01:23:44.936 : en:Chapter 23
01:29:25.985 : en:Chapter 24
01:35:48.743 : en:Chapter 25
01:40:42.494 : en:Chapter 26
01:44:04.279 : en:Chapter 27
01:49:24.724 : en:Chapter 28
01:54:09.676 : en:Chapter 29


Скриншоты

     
     

_________________
Человек – это канат, натянутый между животным и сверхчеловеком, – канат над пропастью.
В человеке ценно то, что он мост, а не цель. Фридрих Ницше
Вне форума [Профиль] [ЛС]
Показать сообщения:    
Ответить на тему

Текущее время: Сегодня 08:57

Часовой пояс: GMT + 3



Вы не можете начинать темы
Вы не можете отвечать на сообщения
Вы не можете редактировать свои сообщения
Вы не можете удалять свои сообщения
Вы не можете голосовать в опросах
Вы не можете прикреплять файлы к сообщениям
Вы не можете скачивать файлы