Today is a free download without charge Download

Калмыкова Ирина | Урок #25. Сказочный стиль в обработке (2016) PCRec [H.264/720p]

Reply to topic
 
Author
Message

}{@R0N ®

Longevity: 3 years 11 months

Posts: 7616

Торрент-статистика

Post 22-Sep-2016 18:58

[Quote]

Урок #25. Сказочный стиль в обработке - Автор (режиссер): Калмыкова Ирина
Жанр: Фото
Описание:
Маска при помощи инструмента "Порог". Точное отделение размытых областей от зоны резкости. Быстрое и ловкое достраивание кадра при помощи Move Tool и др.
Перспектива в живописи и фотографии.
Инструмент "Перспектива".
Множество новых полезных хитростей.
Закрепление прошлого материала.
*Используются для рассказа фото с примера.
Продолжительность: 00:36:13
Качество видео: PCRec
Видео: AVC/H.264, 1280x720, ~2946 Kbps
Аудио: MP3, 2 ch, 256 Kbps, CBR

Mediainfo:

Код:
General
Format                                   : AVI
Format/Info                              : Audio Video Interleave
File size                                : 835 MiB
Duration                                 : 36 min 13 s
Overall bit rate                         : 3 221 kb/s
Writing application                      : Lavf56.36.100
Video
ID                                       : 1
Format                                   : AVC
Format/Info                              : Advanced Video Codec
Format profile                           : [url=mailto:[email protected]][email protected][/url]
Format settings, CABAC                   : Yes
Format settings, ReFrames                : 2 frames
Format settings, GOP                     : M=1, N=25
Codec ID                                 : H264
Duration                                 : 36 min 13 s
Bit rate                                 : 2 946 kb/s
Width                                    : 1 280 pixels
Height                                   : 720 pixels
Display aspect ratio                     : 16:9
Frame rate mode                          : Variable
Frame rate                               : 60.000 FPS
Color space                              : YUV
Chroma subsampling                       : 4:2:0
Bit depth                                : 8 bits
Scan type                                : Progressive
Bits/(Pixel*Frame)                       : 0.053
Stream size                              : 763 MiB (91%)
Audio
ID                                       : 0
Format                                   : MPEG Audio
Format version                           : Version 1
Format profile                           : Layer 3
Mode                                     : Joint stereo
Mode extension                           : MS Stereo
Codec ID                                 : 55
Codec ID/Hint                            : MP3
Duration                                 : 36 min 13 s
Bit rate mode                            : Constant
Bit rate                                 : 256 kb/s
Channel(s)                               : 2 channels
Sampling rate                            : 44.1 kHz
Compression mode                         : Lossy
Stream size                              : 66.3 MiB (8%)
Alignment                                : Aligned on interleaves
Interleave, duration                     : 17  ms (1.00 video frame)
Writing library                          : LAME3.99.5
Скриншоты:
       
Other forum [Profile] [PM]
Display posts from previous:    
Reply to topic

The time now is: Today 20:22

All times are GMT + 3 Hours



You cannot post new topics in this forum
You cannot reply to topics in this forum
You cannot edit your posts in this forum
You cannot delete your posts in this forum
You cannot vote in polls in this forum
You cannot attach files in this forum
You cannot download files in this forum