Сегодня идет свободное скачивание без начисления Download

Кама Сутра: История любви (1996) HDTVRip / Kama Sutra: A Tale of Love (Мира Наир) [1996 г., драма, мелодрама, криминал, история, эротика, HDTVRip]

Ответить на тему
 
Автор
Сообщение

Jurchic ®

Стаж: 5 лет 1 месяц

Сообщений: 50

Откуда: такое любопытство

Торрент-статистика

Пост 28-Сен-2012 21:12

[Цитировать]

Кама Сутра: История любви / Kama Sutra: A Tale of Love (1996) HDTVRip«История любви, ненависти, ревности, безумной страсти…»- Год выпуска: 1996
Страна: США, Германия, Япония, Великобритания, Индия
Жанр: драма, мелодрама, криминал, история, эротика
Продолжительность: 01:53:11
Режиссер: Мира Наир
Продюссер: Кэролайн Барон, Лидия Дин Пилчер, Тина Ди Феличиантонио
Сценарий: Helena Kriel, Мира Наир, Wajida Tabassuh
В ролях: Индира Варма, Сарита Чоудхури, Рамон Тикарам, Нэвин Эндрюс, Рекха, Khalid Tyabji, Арундати Рао, Surabhi Bhansali, Garima Dhup, Перл Падмси ...
Бюджет: $3 000 000
Премьера в мире: 11 сентября 1996

-Описание: Кама Сутра — история любви. Индия, XVI-й век. Маленькая девочка Майя, дочь танцовщицы, живет при дворце магараджи. Ей разрешают донашивать старую одежду принцессы Тары, посещать уроки танцев и слушать лекции о любви по древней книге Кама Сутра.
Проходят годы, и девочки становятся прелестными девушками, за принцессу Тару сватается прекрасный принц Радж Сингх. Но под жарким солнцем Индии любовь не признает сословных различий.
У одной соперницы есть титул и власть, а у другой лишь красота и непревзойденное искусство обольщения. Чем закончится этот изысканный и жестокий поединок?
-Качество: HDTVRip
Формат: AVI
Видео кодек: DivX
Аудио кодек: AC3
Видео: 1462 Кбит/сек, 720х400 (16:9), 23,976 кадра/сек, MPEG-4 Visual
Аудио: 48.0 КГц, 384 Кбит/сек, 6 каналов, 16 бит

MediaInfo:

Общее
Полное имя : :\\KamaSutra_A_Tale_of_Love_1996_HDTVRip.avi
Формат : AVI
Формат/Информация : Audio Video Interleave
Размер файла : 1,47 Гбайт
Продолжительность : 1 ч. 53 м.
Общий поток : 1855 Кбит/сек
Программа кодирования : VirtualDubMod 1.5.10.2 (build 2542/release)
Библиотека кодирования : VirtualDubMod build 2542/release
Видео
Идентификатор : 0
Формат : MPEG-4 Visual
Параметр BVOP формата : 1
Параметр QPel формата : Нет
Параметр GMC формата : Без точки перехода
Параметр матрицы формата : Default (H.263)
Режим смешивания : Сжатый битовый поток
Идентификатор кодека : DX50
Идентификатор кодека/Подсказка : DivX 5
Продолжительность : 1 ч. 53 м.
Битрейт : 1462 Кбит/сек
Ширина : 720 пикселей
Высота : 400 пикселей
Соотношение сторон : 16:9
Соотношение сторон в оригинале : 16:9
Частота кадров : 23,976 кадра/сек
Цветовое пространство : YUV
Субдискретизация насыщенности : 4:2:0
Битовая глубина : 8 бит
Тип развёртки : Прогрессивная
Метод сжатия : С потерями
Бит/(Пиксели*Кадры) : 0.212
Размер потока : 1,16 Гбайт (79%)
Библиотека кодирования : DivX 6.8.5 (UTC 2009-08-20)
Аудио
Идентификатор : 1
Формат : AC-3
Формат/Информация : Audio Coding 3
Расширение режима : CM (complete main)
Параметр Endianness формата : Big
Идентификатор кодека : 2000
Продолжительность : 1 ч. 53 м.
Вид битрейта : Постоянный
Битрейт : 384 Кбит/сек
Каналы : 6 каналов
Расположение каналов : Front: L C R, Side: L R, LFE
Частота : 48,0 КГц
Битовая глубина : 16 бит
Метод сжатия : С потерями
Размер потока : 311 Мбайт (21%)
Выравнивание : Разделение по промежуткам
Продолжительность промежутка : 42 мс. (1,00 видеокадр)
Время предзагрузки промежутка : 500 мс.

Скриншоты

                       


Последний раз редактировалось: Jurchic (2012-09-29 16:57), всего редактировалось 1 раз
Вне форума [Профиль] [ЛС]
Показать сообщения:    
Ответить на тему

Текущее время: Сегодня 20:57

Часовой пояс: GMT + 3



Вы не можете начинать темы
Вы не можете отвечать на сообщения
Вы не можете редактировать свои сообщения
Вы не можете удалять свои сообщения
Вы не можете голосовать в опросах
Вы не можете прикреплять файлы к сообщениям
Вы не можете скачивать файлы