Сегодня идет свободное скачивание без начисления Download

Stand Up (2016.12.18) SATRip (Концерт Стаса Старовойтова)

Ответить на тему
 
Автор
Сообщение

}{@R0N ®

Стаж: 2 года 11 месяцев

Сообщений: 6721

Торрент-статистика

Пост 18-Дек-2016 22:54

[Цитировать]

Stand Up (2016.12.18)
Концерт Стаса Старовойтова
- Телекомпания: ТНТ
Жанр: Юмористическое шоу, Stand up comedy
Актеры: Стас Старовойтов
Описание:
Долгое время поклонники шоу Stand Up на ТНТ знали Стаса, как комика, который шутит о своей семье и маленькой дочке. Но все меняется: на первом сольном концерте Старовойтов предстал в совершенно новом свете. Сцену СДК МАИ заполнили серьезные декорации — железные цепи и аппаратура в коробках, а сам Стас не побоялся шутить на самые откровенные темы. «Для меня очень важна честность, — начал комик свой концерт. — Потому что я воспитан на рок-музыке, а рок-музыка — самый честный вид творчества». Вот и первый сольный концерт Старовойтова — это настоящий рок-н-ролл. Шутки про стареющих рок-звезд, Евгения Цыганова, алкоголь и политику, и, конечно же, личную жизнь: Старовойтов с юмором рассказывает, как он развелся с женой, которая подозревала его в измене, как ездил на Кубу в поисках себя и понял коммунистов и объясняет разницу между женским и мужским оргазмом. На ТНТ совершенно новый Старовойтов: он не боится использовать жесткие словечки, рассказывает всю правду про себя и других людей и не пытается приглаживать свои шутки.
Релиз от: ramzesII
Продолжительность: ~ 00:48:55
Качество видео: SATRip
Субтитры: Отсутствуют
Видео: MPEG4, XviD, 720x400 (16:9), 25.000 fps, 1 312 Kbps (0.182 bit/pixel)
Аудио: MP3, 48.0 KHz, 2 ch, 192 Kbps, CBR

Mediainfo:

Код:
Общее
Полное имя                               : D:\[1]\Stand Up\Stand Up. Концерт Стаса Старовойтова (2016.12.18).avi
Формат                                   : AVI
Формат/Информация                        : Audio Video Interleave
Размер файла                             : 531 Мбайт
Продолжительность                        : 48 м.
Общий поток                              : 1516 Кбит/сек
Программа кодирования                    : VirtualDubMod 1.5.10.3 (build 2550/release)
Библиотека кодирования                   : VirtualDubMod build 2550/release
Видео
Идентификатор                            : 0
Формат                                   : MPEG-4 Visual
Профиль формата                          : Advanced [email protected]
Параметр BVOP формата                    : 1
Параметр QPel формата                    : Нет
Параметр GMC формата                     : Без точки перехода
Параметр матрицы формата                 : Default (H.263)
Идентификатор кодека                     : XVID
Идентификатор кодека/Подсказка           : XviD
Продолжительность                        : 48 м.
Битрейт                                  : 1312 Кбит/сек
Ширина                                   : 720 пикселей
Высота                                   : 400 пикселей
Соотношение сторон                       : 16:9
Частота кадров                           : 25,000 кадров/сек
Цветовое пространство                    : YUV
Субдискретизация насыщенности            : 4:2:0
Битовая глубина                          : 8 бит
Тип развёртки                            : Прогрессивная
Метод сжатия                             : С потерями
Бит/(Пиксели*Кадры)                      : 0.182
Размер потока                            : 459 Мбайт (86%)
Библиотека кодирования                   : XviD 67
Аудио
Идентификатор                            : 1
Формат                                   : MPEG Audio
Версия формата                           : Version 1
Профиль формата                          : Layer 3
Режим                                    : Joint stereo
Идентификатор кодека                     : 55
Идентификатор кодека/Подсказка           : MP3
Продолжительность                        : 48 м.
Вид битрейта                             : Постоянный
Битрейт                                  : 192 Кбит/сек
Каналы                                   : 2 канала
Частота                                  : 48,0 КГц
Метод сжатия                             : С потерями
Размер потока                            : 67,2 Мбайт (13%)
Выравнивание                             : Соединение по промежуткам
Продолжительность промежутка             : 24  мс. (0,60 видеокадр)
Время предзагрузки промежутка            : 504  мс.
Скриншоты:
       
Вне форума [Профиль] [ЛС]
Показать сообщения:    
Ответить на тему

Текущее время: Сегодня 04:23

Часовой пояс: GMT + 3



Вы не можете начинать темы
Вы не можете отвечать на сообщения
Вы не можете редактировать свои сообщения
Вы не можете удалять свои сообщения
Вы не можете голосовать в опросах
Вы не можете прикреплять файлы к сообщениям
Вы не можете скачивать файлы