Today is a free download without charge Download

Отряд самоубийц в 3Д / Suicide Squad 3D (Дэвид Эйр / David Ayer) [2016, фантастика, фэнтези, боевик, приключения, BDrip, 1080p] OverUnder / Вертикальная стереопара

Reply to topic
 
Author
Message

Omen ®

Longevity: 6 years 11 months

Posts: 181090

Торрент-статистика

Post 13-Jan-2017 01:00

[Quote]

Отряд самоубийц / Suicide Squad
Год выпуска: 2016
Страна: США(DC, Warner Bros. Pictures)
Жанр: фантастика, фэнтези, боевик, приключения
Продолжительность: 02:02:53
Перевод: Профессиональный дублированный(Лицензия)
Русские субтитры: нет
Режиссер на русском: Дэвид Эйр / David Ayer
В ролях: Марго Робби, Уилл Смит, Джаред Лето, Джай Кортни, Кара Делевинь, Джей Эрнандес, Юэль Киннаман, Виола Дэвис, Адевале Акинойе-Агбаже, Скотт Иствуд
Описание: Правительство решает дать команде суперзлодеев шанс на искупление. Подвох в том, что их отправляют на миссию, где они, вероятнее всего, погибнут.
Сэмпл: http://sendfile.su/1287345
Качество: BDrip
Контейнер: MKV
Формат 3D: OverUnder / Вертикальная стереопара
Порядок ракурсов: левый ракурс первый
Видео кодек: x264
Аудио кодек: AC3
Видео: AVC / [email protected] / 23,976 fps / 1920х2160 / 21,9 Мбит/сек
Аудио: Русский / AC3 / 48 KHz / 5.1 ch / 448 Кбит/сек(Лицензия)
Аудио: Английский / AC3 / 48 KHz / 5.1 ch / 640 Кбит/сек
Субтитры внешние(SRT):
Русские Форсированные + Песни [редакция Ash61, перевод песен А. Матвеев]
Релиз группы: ВНИМАНИЕ ! На встроенных ТВ-плеерах работать не будет!!!
ТВ Samsung в названии которого есть надпись Ultra HD , и LG Ultra HD 800 серии, Xiaomi Mi TV 2 воспроизводят полные стереопары встроенными плеерами
Железные плееры на которых воспроизводятся полные стереопары:Popcorn C-200 , Dune HD Smart D1 , Dune HD DUO , Dune HD Smart H1 , Dune HD Smart B1 , Dune HD Max , Dune HD TV-303D , Dune HD Base 3D, Philips HMP7001, Aura HD
Чтобы изображение было на весь экран в плеере выставляем, если рип 1920х1600 - то выставляем 2.35:1 , если 1920х2160 - то выставляем 16:9

MediaInfo

Общее
Уникальный идентификатор : 219416159079014296964228488590589590711 (0xA51203DDF0639C5DABB839AD80E27CB7)
Полное имя : E:\закачки\Suicide Squad.Rip by SeRoGa00\Suicide Squad.Rip by SeRoGa00.mkv
Формат : Matroska
Версия формата : Version 2
Размер файла : 20,1 Гбайт
Продолжительность : 2 ч. 2 м.
Общий поток : 23,4 Мбит/сек
Дата кодирования : UTC 2016-12-02 17:14:55
Программа кодирования : mkvmerge v3.4.0 ('Rapunzel') сборка от May 15 2010 09:38:20
Библиотека кодирования : libebml v0.8.0 + libmatroska v0.9.0
Видео
Идентификатор : 1
Формат : AVC
Формат/Информация : Advanced Video Codec
Профиль формата : [email protected]
Параметр CABAC формата : Да
Параметр ReFrames формата : 4 кадра
Идентификатор кодека : V_MPEG4/ISO/AVC
Продолжительность : 2 ч. 2 м.
Битрейт : 21,9 Мбит/сек
Ширина : 1920 пикселей
Высота : 2160 пикселей
Соотношение сторон : 0,889
Частота кадров : 23,976 кадра/сек
Цветовое пространство : YUV
Субдискретизация насыщенности : 4:2:0
Битовая глубина : 8 бит
Тип развёртки : Прогрессивная
Бит/(Пиксели*Кадры) : 0.220
Размер потока : 18,8 Гбайт (93%)
Заголовок : Rip by SeRoGa00
Библиотека кодирования : x264 core 148 r2638 7599210
Настройки программы : cabac=1 / ref=4 / deblock=1:-3:-3 / analyse=0x3:0x113 / me=umh / subme=10 / psy=1 / psy_rd=1.00:0.15 / mixed_ref=1 / me_range=24 / chroma_me=1 / trellis=2 / 8x8dct=1 / cqm=0 / deadzone=21,11 / fast_pskip=1 / chroma_qp_offset=-3 / threads=9 / lookahead_threads=2 / sliced_threads=0 / nr=0 / decimate=1 / interlaced=0 / bluray_compat=0 / constrained_intra=0 / bframes=10 / b_pyramid=2 / b_adapt=2 / b_bias=0 / direct=3 / weightb=1 / open_gop=0 / weightp=2 / keyint=250 / keyint_min=23 / scenecut=40 / intra_refresh=0 / rc_lookahead=60 / rc=crf / mbtree=1 / crf=18.0 / qcomp=0.60 / qpmin=10 / qpmax=69 / qpstep=4 / vbv_maxrate=40000 / vbv_bufsize=40000 / crf_max=0.0 / nal_hrd=none / filler=0 / ip_ratio=1.40 / aq=1:1.00
Язык : English
Default : Нет
Forced : Нет
Аудио #1
Идентификатор : 2
Формат : AC-3
Формат/Информация : Audio Coding 3
Расширение режима : CM (complete main)
Параметр Endianness формата : Big
Идентификатор кодека : A_AC3
Продолжительность : 2 ч. 2 м.
Вид битрейта : Постоянный
Битрейт : 448 Кбит/сек
Каналы : 6 каналов
Расположение каналов : Front: L C R, Side: L R, LFE
Частота : 48,0 КГц
Битовая глубина : 16 бит
Метод сжатия : С потерями
Размер потока : 394 Мбайт (2%)
Язык : Russian
Default : Да
Forced : Нет
Аудио #2
Идентификатор : 3
Формат : AC-3
Формат/Информация : Audio Coding 3
Расширение режима : CM (complete main)
Параметр Endianness формата : Big
Идентификатор кодека : A_AC3
Продолжительность : 2 ч. 2 м.
Вид битрейта : Постоянный
Битрейт : 640 Кбит/сек
Каналы : 6 каналов
Расположение каналов : Front: L C R, Side: L R, LFE
Частота : 48,0 КГц
Битовая глубина : 16 бит
Метод сжатия : С потерями
Размер потока : 563 Мбайт (3%)
Язык : English
Default : Нет
Forced : Нет

Скриншоты


Other forum [Profile] [PM]
Display posts from previous:    
Reply to topic

The time now is: Today 05:28

All times are GMT + 3 Hours



You cannot post new topics in this forum
You cannot reply to topics in this forum
You cannot edit your posts in this forum
You cannot delete your posts in this forum
You cannot vote in polls in this forum
You cannot attach files in this forum
You cannot download files in this forum