Сегодня идет свободное скачивание без начисления Download

VA - Retro Megadance Party (2009) [FLAC|Lossless|tracks + .cue] <Eurodance, Europop>

Ответить на тему
 
Автор
Сообщение

RazBoyNik ®

Пол:

Стаж: 5 лет

Сообщений: 145

Торрент-статистика

Пост 05-Фев-2017 22:05

[Цитировать]

VA - Retro Megadance Party (2009) - Год: 2009
Жанр: Eurodance, Europop
Издание: Hargent Media - HGCH 708-2
Продолжительность: 01:19:50
Кодек: FLAC
Битрейт: Lossless
Тип рипа: tracks + .cue
Треклист:
01. What Is Love (Haddaway) [03:23]
02. I've Been Thinking About You (Londonbeat) [03:39]
03. Never Alone (2 Brothers On The Floor) [03:24]
04. Megamix (Whigfield) [04:26]
05. Show Me Colours (Masterboy) [03:29]
06. Love Message (Love Message) [03:44]
07. No Limits (2 Unlimited) [03:35]
08. Think About The Way (Ice Mc) [04:14]
09. Jack To The Sound Of The Underground 94 (Hithouse) [03:28]
10. Feel The Vibe (Afrika Bambaataa) [03:59]
11. Jambo, Jambo, Jambo (Ragga 2 Sunshine) [03:22]
12. Everybody (DJ Bobo) [03:39]
13. Spirit Of The Hawk (Urgent C & Indiansphere) [03:27]
14. Life (Haddaway) [04:06]
15. Need In You (Fun Fun) [03:04]
16. Fly (Trough The Starry Night) (2 Brothers On The Floor) [03:23]
17. Somebody Dance With Me, Keep On Dancing, Take Control (DJ Bobo) [03:27]
18. It's Raining Again (Urgent C & Indiansphere) [03:31]
19. Feel The Heat Of The Night (Masterboy) [03:33]
20. Mr.Vain (Tania Evans) [03:29]
21. Eins,Zwei,Polizei (Modo) [03:12]
22. No Hagas El Indio, Haz El Cherokee (Cherry Coke) [04:06]-

Отчёт EAC&#58;

Exact Audio Copy V1.1 from 23. June 2015
EAC extraction logfile from 20. January 2016, 21:32
Retro Megadance Party / Retro Megadance Party
Used drive : ASUS SDRW-08D1S-U Adapter: 1 ID: 1
Read mode : Secure
Utilize accurate stream : Yes
Defeat audio cache : Yes
Make use of C2 pointers : No
Read offset correction : 103
Overread into Lead-In and Lead-Out : No
Fill up missing offset samples with silence : Yes
Delete leading and trailing silent blocks : No
Null samples used in CRC calculations : Yes
Used interface : Native Win32 interface for Win NT & 2000
Gap handling : Appended to previous track
Used output format : User Defined Encoder
Selected bitrate : 1024 kBit/s
Quality : High
Add ID3 tag : No
Command line compressor : J:\Program Files (x86)\Exact Audio Copy\Flac\flac.exe
Additional command line options : -V -8 -T "COMMENT=ripped by Krevetka1972 special for new-team.org" -T "ARTIST=%artist%" -T "TITLE=%title%" -T "ALBUM=%albumtitle%" -T "DATE=%year%" -T "TRACKNUMBER=%tracknr%" -T "GENRE=%genre%" -T "ALBUMARTIST=%albuminterpret%" %source% -o %dest%
TOC of the extracted CD
Track | Start | Length | Start sector | End sector
---------------------------------------------------------
1 | 0:00.00 | 3:23.32 | 0 | 15256
2 | 3:23.32 | 3:39.01 | 15257 | 31682
3 | 7:02.33 | 3:24.04 | 31683 | 46986
4 | 10:26.37 | 4:26.20 | 46987 | 66956
5 | 14:52.57 | 3:29.70 | 66957 | 82701
6 | 18:22.52 | 3:44.72 | 82702 | 99573
7 | 22:07.49 | 3:35.58 | 99574 | 115756
8 | 25:43.32 | 4:14.15 | 115757 | 134821
9 | 29:57.47 | 3:28.67 | 134822 | 150488
10 | 33:26.39 | 3:59.24 | 150489 | 168437
11 | 37:25.63 | 3:22.28 | 168438 | 183615
12 | 40:48.16 | 3:39.52 | 183616 | 200092
13 | 44:27.68 | 3:27.45 | 200093 | 215662
14 | 47:55.38 | 4:06.05 | 215663 | 234117
15 | 52:01.43 | 3:04.43 | 234118 | 247960
16 | 55:06.11 | 3:23.39 | 247961 | 263224
17 | 58:29.50 | 3:27.15 | 263225 | 278764
18 | 61:56.65 | 3:31.15 | 278765 | 294604
19 | 65:28.05 | 3:33.36 | 294605 | 310615
20 | 69:01.41 | 3:29.50 | 310616 | 326340
21 | 72:31.16 | 3:12.15 | 326341 | 340755
22 | 75:43.31 | 4:06.33 | 340756 | 359238
Track 1
Filename J:\Retro Megadance Party\01. Haddaway - What Is Love.wav
Pre-gap length 0:00:02.00
Peak level 99.0 %
Extraction speed 1.2 X
Track quality 100.0 %
Test CRC D80D34C2
Copy CRC D80D34C2
Accurately ripped (confidence 1) [F9922F81] (AR v1)
Copy OK
Track 2
Filename J:\Retro Megadance Party\02. Londonbeat - I've Been Thinking About You.wav
Peak level 60.9 %
Extraction speed 1.3 X
Track quality 100.0 %
Test CRC DBEEC4FB
Copy CRC DBEEC4FB
Accurately ripped (confidence 1) [0DE48F01] (AR v1)
Copy OK
Track 3
Filename J:\Retro Megadance Party\03. 2 Brothers On The Floor - Never Alone.wav
Peak level 98.9 %
Extraction speed 1.4 X
Track quality 100.0 %
Test CRC 62B42063
Copy CRC 62B42063
Accurately ripped (confidence 1) [0BAE8F68] (AR v1)
Copy OK
Track 4
Filename J:\Retro Megadance Party\04. Whigfield - Megamix.wav
Peak level 99.0 %
Extraction speed 1.4 X
Track quality 99.9 %
Test CRC 8D46C77C
Copy CRC 8D46C77C
Accurately ripped (confidence 1) [EB43BB1D] (AR v1)
Copy OK
Track 5
Filename J:\Retro Megadance Party\05. Masterboy - Show Me Colours.wav
Peak level 98.9 %
Extraction speed 1.6 X
Track quality 100.0 %
Test CRC 794FC1C5
Copy CRC 794FC1C5
Accurately ripped (confidence 1) [6627150D] (AR v1)
Copy OK
Track 6
Filename J:\Retro Megadance Party\06. Love Message - Love Message.wav
Peak level 75.1 %
Extraction speed 1.7 X
Track quality 100.0 %
Test CRC F8DBC404
Copy CRC F8DBC404
Accurately ripped (confidence 1) [5CC874DD] (AR v1)
Copy OK
Track 7
Filename J:\Retro Megadance Party\07. 2 Unlimited - No Limits.wav
Peak level 99.0 %
Extraction speed 1.6 X
Track quality 99.9 %
Test CRC 51A0CE8C
Copy CRC 51A0CE8C
Accurately ripped (confidence 1) [7FB1F4BC] (AR v1)
Copy OK
Track 8
Filename J:\Retro Megadance Party\08. Ice Mc - Think About The Way.wav
Peak level 87.2 %
Extraction speed 1.9 X
Track quality 100.0 %
Test CRC 03C6FDF0
Copy CRC 03C6FDF0
Accurately ripped (confidence 1) [807DDA20] (AR v1)
Copy OK
Track 9
Filename J:\Retro Megadance Party\09. Hithouse - Jack To The Sound Of The Underground 94.wav
Peak level 99.0 %
Extraction speed 1.9 X
Track quality 100.0 %
Test CRC 7BF89C52
Copy CRC 7BF89C52
Accurately ripped (confidence 1) [A2FE4AC7] (AR v1)
Copy OK
Track 10
Filename J:\Retro Megadance Party\10. Afrika Bambaataa - Feel The Vibe.wav
Peak level 99.0 %
Extraction speed 2.1 X
Track quality 100.0 %
Test CRC D944AE36
Copy CRC D944AE36
Accurately ripped (confidence 1) [48539161] (AR v1)
Copy OK
Track 11
Filename J:\Retro Megadance Party\11. Ragga 2 Sunshine - Jambo, Jambo, Jambo.wav
Peak level 87.9 %
Extraction speed 2.1 X
Track quality 100.0 %
Test CRC B9787F60
Copy CRC B9787F60
Accurately ripped (confidence 1) [1379318E] (AR v1)
Copy OK
Track 12
Filename J:\Retro Megadance Party\12. DJ Bobo - Everybody.wav
Peak level 58.2 %
Extraction speed 2.1 X
Track quality 100.0 %
Test CRC 540B06A7
Copy CRC 540B06A7
Accurately ripped (confidence 1) [92DB5DB8] (AR v1)
Copy OK
Track 13
Filename J:\Retro Megadance Party\13. Urgent C & Indiansphere - Spirit Of The Hawk.wav
Peak level 62.7 %
Extraction speed 2.2 X
Track quality 100.0 %
Test CRC 47B10449
Copy CRC 47B10449
Accurately ripped (confidence 1) [28DDC770] (AR v1)
Copy OK
Track 14
Filename J:\Retro Megadance Party\14. Haddaway - Life.wav
Peak level 99.0 %
Extraction speed 2.3 X
Track quality 100.0 %
Test CRC 0EA3A5FA
Copy CRC 0EA3A5FA
Accurately ripped (confidence 1) [CD9BB203] (AR v1)
Copy OK
Track 15
Filename J:\Retro Megadance Party\15. Fun Fun - Need In You.wav
Peak level 99.0 %
Extraction speed 1.9 X
Track quality 99.9 %
Test CRC 631F3B6A
Copy CRC 631F3B6A
Accurately ripped (confidence 1) [54F55AB2] (AR v1)
Copy OK
Track 16
Filename J:\Retro Megadance Party\16. 2 Brothers On The Floor - Fly (trough the starry night).wav
Peak level 99.0 %
Extraction speed 2.0 X
Track quality 99.9 %
Test CRC 8C824C17
Copy CRC 8C824C17
Accurately ripped (confidence 1) [968E4203] (AR v1)
Copy OK
Track 17
Filename J:\Retro Megadance Party\17. DJ Bobo - Somebody Dance With Me, Keep On Dancing, Take Control.wav
Peak level 87.5 %
Extraction speed 2.4 X
Track quality 100.0 %
Test CRC 9F72CD7D
Copy CRC 9F72CD7D
Accurately ripped (confidence 1) [F9E37F8F] (AR v1)
Copy OK
Track 18
Filename J:\Retro Megadance Party\18. Urgent C & Indiansphere - It's Raining again.wav
Peak level 82.8 %
Extraction speed 2.4 X
Track quality 100.0 %
Test CRC C942F89A
Copy CRC C942F89A
Accurately ripped (confidence 1) [89554E59] (AR v1)
Copy OK
Track 19
Filename J:\Retro Megadance Party\19. Masterboy - Feel The Heat Of The Night.wav
Peak level 77.9 %
Extraction speed 2.2 X
Track quality 99.9 %
Test CRC ECCF4BE9
Copy CRC ECCF4BE9
Accurately ripped (confidence 1) [DF04069F] (AR v1)
Copy OK
Track 20
Filename J:\Retro Megadance Party\20. Tania Evans - Mr.Vain.wav
Peak level 99.0 %
Extraction speed 2.5 X
Track quality 100.0 %
Test CRC D22C4710
Copy CRC D22C4710
Accurately ripped (confidence 1) [267FC234] (AR v1)
Copy OK
Track 21
Filename J:\Retro Megadance Party\21. Modo - Eins,Zwei,Polizei.wav
Peak level 99.0 %
Extraction speed 2.2 X
Track quality 99.9 %
Test CRC 14E8B7E7
Copy CRC 14E8B7E7
Accurately ripped (confidence 1) [4843DF46] (AR v1)
Copy OK
Track 22
Filename J:\Retro Megadance Party\22. Cherry Coke - No Hagas El Indio, Haz El Cherokee.wav
Peak level 88.6 %
Extraction speed 2.7 X
Track quality 100.0 %
Test CRC 63560F5B
Copy CRC 63560F5B
Accurately ripped (confidence 1) [09BC4DBE] (AR v1)
Copy OK
All tracks accurately ripped
No errors occurred
End of status report
---- CUETools DB Plugin V2.1.6
[CTDB TOCID: TsQytdkJT.3dEuyXg9WzMJCp5cY-] disk not present in database
Submit result: TsQytdkJT.3dEuyXg9WzMJCp5cY- has been uploaded
==== Log checksum 007646E86182C951CB77121DA5C3CD08F4C2C877FB6ECD7D3CE70FED8158D003 ====

Отчёт auCDtect Task manager&#58;

-----------------------
DON'T MODIFY THIS FILE
-----------------------
PERFORMER: auCDtect Task Manager, ver. 1.6.0 RC1 build 1.6.0.1
Copyright (c) 2008-2010 y-soft. All rights reserved
http://y-soft.org
ANALYZER: auCDtect: CD records authenticity detector, version 0.8.2
Copyright (c) 2004 Oleg Berngardt. All rights reserved.
Copyright (c) 2004 Alexander Djourik. All rights reserved.
FILE: 22. Cherry Coke - No Hagas El Indio, Haz El Cherokee.flac
Size: 30892947 Hash: CFDB4BDE2443D83AD6B90A6991DE9AA7 Accuracy: -m0
Conclusion: CDDA 100%
Signature: D837A9160B7369223B5A9FDB335531080EDEB202
FILE: 21. Modo - Eins,Zwei,Polizei.flac
Size: 22041353 Hash: 52FC2B535232ADBF781475CF18F89358 Accuracy: -m0
Conclusion: CDDA 99%
Signature: 5B0B7D50C534AC2BCD1BD0DC90F75B8574A47573
FILE: 20. Tania Evans - Mr.Vain.flac
Size: 25191123 Hash: 3C85E909B638F222D0568EF0C23C138B Accuracy: -m0
Conclusion: MPEG 95%
Signature: 7C71C27D8F28978627AADFA7CE843D8B9E6CA69C
FILE: 19. Masterboy - Feel The Heat Of The Night.flac
Size: 28656274 Hash: 0D3F9529B5DAD62D93A8DE7F48B98F1C Accuracy: -m0
Conclusion: MPEG 100%
Signature: 28BA390FC115E1E12B58D4F4C71A19AE80C61198
FILE: 18. Urgent C & Indiansphere - It's Raining again.flac
Size: 25790793 Hash: BDC9C4C5CF0D7BEF2C59063441785F11 Accuracy: -m0
Conclusion: CDDA 100%
Signature: A05AC961BCBD5DF1A7AAB555847464FC07C261C2
FILE: 17. DJ Bobo - Somebody Dance With Me, Keep On Dancing, Take Control.flac
Size: 26699485 Hash: 8454608A848D1E7D9C3C5D43E9F20392 Accuracy: -m0
Conclusion: CDDA 100%
Signature: FB83EA095677AA4F7076817B3506306037016A65
FILE: 16. 2 Brothers On The Floor - Fly (trough the starry night).flac
Size: 24944133 Hash: EAAEA534916EEFC5CD2AA4856D827263 Accuracy: -m0
Conclusion: CDDA 100%
Signature: 5395CE4D58A3EF41F9DBF73FD695A60445EEC309
FILE: 15. Fun Fun - Need In You.flac
Size: 24185218 Hash: 1F023B31F3D261327E629143D27239B3 Accuracy: -m0
Conclusion: ???
Signature: 38FB0200F2F9BA7770F57F2CDF20203A12A77516
FILE: 14. Haddaway - Life.flac
Size: 31945861 Hash: DE5D4809B8B8E910B3AC40957655D3F3 Accuracy: -m0
Conclusion: CDDA 100%
Signature: 317988CD6877009757A44494EDC1D858FCF055E1
FILE: 13. Urgent C & Indiansphere - Spirit Of The Hawk.flac
Size: 26192588 Hash: EFE61956358F1544B7D25AD8598D0AD8 Accuracy: -m0
Conclusion: CDDA 100%
Signature: 1F47820DB700C24875A8760566B5FAFD1395B5C6
FILE: 12. DJ Bobo - Everybody.flac
Size: 26891030 Hash: 05F0C6ECC4DAFE85C490544B094EBCE9 Accuracy: -m0
Conclusion: CDDA 100%
Signature: 33C3C44074203004560CF720856D4D13A94DDD1F
FILE: 11. Ragga 2 Sunshine - Jambo, Jambo, Jambo.flac
Size: 25114438 Hash: BAA9A611CB04ECFDAED05274F45CD179 Accuracy: -m0
Conclusion: CDDA 100%
Signature: FA190097115C5E7CF0E8A0EF4194A26E03C5150B
FILE: 10. Afrika Bambaataa - Feel The Vibe.flac
Size: 30622142 Hash: 8753759737AC14C1F057AAD10A3343E4 Accuracy: -m0
Conclusion: CDDA 100%
Signature: CDAED63A0739D360F8C4CEAA032D7D9FDE68C2EB
FILE: 09. Hithouse - Jack To The Sound Of The Underground 94.flac
Size: 25610221 Hash: B92985722CB4205287DA6D1BF9D03B93 Accuracy: -m0
Conclusion: CDDA 100%
Signature: 616169C2295283D18F11FFE03D1E8A9AF7643F16
FILE: 08. Ice Mc - Think About The Way.flac
Size: 32220888 Hash: 840E9DE6C9E711518259C6F99C3E25A9 Accuracy: -m0
Conclusion: CDDA 94%
Signature: D076DAA052C4252E3DE78F3C7A6CEF8F0227D37C
FILE: 07. 2 Unlimited - No Limits.flac
Size: 26476757 Hash: 6494D55414D5EC499D0F91A7A97A9992 Accuracy: -m0
Conclusion: CDDA 100%
Signature: CE62BC22E9764BFF77584300E12B3210DEAD9FAE
FILE: 06. Love Message - Love Message.flac
Size: 28978941 Hash: 012718B67CE1075A8BDC132B11B1FFE3 Accuracy: -m0
Conclusion: CDDA 100%
Signature: 1AEA981E9F37DD937E7556A15B0479A9925E6893
FILE: 05. Masterboy - Show Me Colours.flac
Size: 28053561 Hash: 3ACF9761118DB3409760C823C674EE5D Accuracy: -m0
Conclusion: CDDA 100%
Signature: 67B26B2F0BDCA01EB28C27C2C7CBDB5B181AE240
FILE: 04. Whigfield - Megamix.flac
Size: 33029865 Hash: 6AB8EB5D7FCEEE1E19D61E79754ECDF3 Accuracy: -m0
Conclusion: CDDA 100%
Signature: AC8717EF98F31842C149C00E7FE0659F19917804
FILE: 03. 2 Brothers On The Floor - Never Alone.flac
Size: 25641835 Hash: F73A6361F4C7F83A4D2D69C661B4DDA4 Accuracy: -m0
Conclusion: CDDA 100%
Signature: A1D919181E1D74B7CDB4DDD38A3A911DAED1A463
FILE: 02. Londonbeat - I've Been Thinking About You.flac
Size: 27136107 Hash: 6BA3F97627B20D96FEA90F7FE60E4E74 Accuracy: -m0
Conclusion: MPEG 95%
Signature: CA5DE99DD6E15AB0D9CC6B9568DD86A429208D2A
FILE: 01. Haddaway - What Is Love.flac
Size: 25123148 Hash: A044E1CF8CB1EFE23867FF7CA1646354 Accuracy: -m0
Conclusion: CDDA 99%
Signature: EB881E846D22749BF5E52E96965B0EA18133B9FB

Спектрограмма&#58;

       
Вне форума [Профиль] [ЛС]
Показать сообщения:    
Ответить на тему

Текущее время: Сегодня 03:03

Часовой пояс: GMT + 3



Вы не можете начинать темы
Вы не можете отвечать на сообщения
Вы не можете редактировать свои сообщения
Вы не можете удалять свои сообщения
Вы не можете голосовать в опросах
Вы не можете прикреплять файлы к сообщениям
Вы не можете скачивать файлы