Сегодня идет свободное скачивание без начисления Download

В джазе только девушки / Some Like It Hot (Билли Уайлдер) [1959 г., мелодрама, комедия, криминал, приключения, музыка, DVDRip]

Ответить на тему
 
Автор
Сообщение

Jurchic ®

Стаж: 5 лет 1 месяц

Сообщений: 50

Откуда: такое любопытство

Торрент-статистика

Пост 03-Окт-2012 22:17

[Цитировать]

В джазе только девушки / Some Like It Hot (1959)дублирование к/с им. М.Горького
(как был показан в кинотеатрах СССР, без каких либо вставок более позднего времени)
-- Год выпуска: 1959
Страна: США
Жанр: мелодрама, комедия, криминал, приключения, музыка
Продолжительность: 01:36:27
Перевод: Профессиональный,дублированный ( киностудия им. Горького)
Роли дублировали: Данута Столярская, Феликс Яворский, Борис Иванов, Михаил Глузский, Константин Карельских, ...
Режиссер: Билли Уайлдер
Продюссер: И.А.Л. Даймонд, Доан Харрисон, Билли Уайлдер
Сценарий: Билли Уайлдер, И.А.Л. Даймонд, Роберт Тёрен ...
В ролях: Мэрилин Монро, Тони Кертис, Джек Леммон, Джордж Рафт, Пэт О’Брайен, Джо Э. Браун, Нехемия Персофф, Джоан Шоули, Билли Грэй, Джордж Э. Стоун...

Бюджет: $2 883 848
Премьера в мире: 29 марта 1959
Релиз на DVD: 14 мая 2009, «Двадцатый Век Фокс СНГ»
Релиз на Blu-Ray: 7 июля 2011, «Двадцатый Век Фокс СНГ»-- — Детям до 13 лет просмотр не желателен--Описание: Когда чикагские музыканты Джо и Джерри случайно становятся свидетелями бандитской перестрелки, они в срочном порядке смываются на поезде во Флориду, прикинувшись женщинами. Теперь они — Джозефина и Дафна, новенькие и хорошенькие инструменталистки женского джаз — банда.
До поры до времени их маскировка срабатывает. Но вскоре любвеобильная солистка «западает» на переодетую мужчиной Джозефину, престарелый плейбой влюбляется в Дафну, а босс мафии, разгадав тайну маскарада, решает срочно разделаться со свидетелями…
--

Награды:

 
Качество: DVDRip
Формат: AVI
Видео кодек: DivX5
Аудио кодек: AC-3
Видео: 1962 Кбит/с, 672x400, 25,000 кадров/сек, MPEG-4 Visual (DivX 5)
Аудио: 192 Кбит/сек, 48,0 КГц, 2 канала, 16 бит, AC-3

MediaInfo:

Код:
Общее
Полное имя                               : :\µTorrent\\В джазе только девушки  сов. дубляж.avi
Формат                                   : AVI
Формат/Информация                        : Audio Video Interleave
Размер файла                             : 1,46 Гбайт
Продолжительность                        : 1 ч. 36 м.
Общий поток                              : 2164 Кбит/сек
Название фильма                          : В джазе только девушки (Советский кинопрокат)
Жанр                                     : Комедия
Дата записи                              : 17.06.2010
Программа кодирования                    : VirtualDubMod 1.5.10.2 (build 2542/release)
Библиотека кодирования                   : VirtualDubMod build 2542/release
Примечание                               : DVDRip
Видео
Идентификатор                            : 0
Формат                                   : MPEG-4 Visual
Профиль формата                          : Advanced [email protected]
Параметр BVOP формата                    : 1
Параметр QPel формата                    : Нет
Параметр GMC формата                     : Без точки перехода
Параметр матрицы формата                 : Default (H.263)
Идентификатор кодека                     : DX50
Идентификатор кодека/Подсказка           : DivX 5
Продолжительность                        : 1 ч. 36 м.
Битрейт                                  : 1962 Кбит/сек
Ширина                                   : 672 пикселя
Высота                                   : 400 пикселей
Соотношение сторон                       : 1,680
Частота кадров                           : 25,000 кадров/сек
Цветовое пространство                    : YUV
Субдискретизация насыщенности            : 4:2:0
Битовая глубина                          : 8 бит
Тип развёртки                            : Прогрессивная
Метод сжатия                             : С потерями
Бит/(Пиксели*Кадры)                      : 0.292
Размер потока                            : 1,32 Гбайт (91%)
Библиотека кодирования                   : XviD 1.2.1 (UTC 2008-12-04)
Аудио
Идентификатор                            : 1
Формат                                   : AC-3
Формат/Информация                        : Audio Coding 3
Расширение режима                        : CM (complete main)
Параметр Endianness формата              : Big
Идентификатор кодека                     : 2000
Продолжительность                        : 1 ч. 36 м.
Вид битрейта                             : Постоянный
Битрейт                                  : 192 Кбит/сек
Каналы                                   : 2 канала
Расположение каналов                     : Front: L R
Частота                                  : 48,0 КГц
Битовая глубина                          : 16 бит
Метод сжатия                             : С потерями
Размер потока                            : 132 Мбайт (9%)
Выравнивание                             : Разделение по промежуткам
Продолжительность промежутка             : 40  мс. (1,00 видеокадр)
Время предзагрузки промежутка            : 500  мс.
Заголовок                                : Дубляж (к/с им. М. Горького)
       

Скриншоты

                           
Вне форума [Профиль] [ЛС]
Показать сообщения:    
Ответить на тему

Текущее время: Сегодня 20:24

Часовой пояс: GMT + 3



Вы не можете начинать темы
Вы не можете отвечать на сообщения
Вы не можете редактировать свои сообщения
Вы не можете удалять свои сообщения
Вы не можете голосовать в опросах
Вы не можете прикреплять файлы к сообщениям
Вы не можете скачивать файлы