Today is a free download without charge Download

Любители 2017 представляют (AmateurTeenMovs) [2017 г., Amateur, Oral Sex, Teens, Hardcore, Group sex, WEB-DL] (Unknown actors)

Reply to topic
 
Author
Message

XP1971 ®

Торрент-статистика

Post 18-Feb-2017 19:12

[Quote]

-Любители 2017 представляют
-- Режиссер: N/A
Страна: Russia
Год выпуска: 2017 г.
Студия: AmateurTeenMovs
Продолжительность: 01:53:23
Оригинальный аудиопоток: русский
Жанр: Amateur, Oral Sex, Teens, Hardcore, Group sex-В ролях: Unknown actors
-Описание:
Потеря стыда, девственности и вашего свободного времени уже на подходе, господа пираты. Смотрим, как любители в этом году уже успели насовать кому-то за щеку, а кому досталось и рачком. При съёмках этих посленовогодних русских нарезок никто не спился и пострадал. Одобрено обществом по потерям уважения в обществе.-
Контейнер: MP4
Аудио кодек: AAC
Видео кодек: MPEG-4
Cубтитры: отсутствуют
Качество видео: WEB-DL
Аудио: Advanced Audio | 44.1 KHz | 2 ch | 152.0 Kbps
Видео: MPEG-4 Visual | 720х576 | 1634 Кbps | 25.0 fps | 0.158 bit/pixel

Media Info

Код:
Общее
Полное имя : AmateurTeenMovs - Best 2017 Videos Vol.1_[...].mp4
Формат : MPEG-4
Профиль формата : Base Media
Идентификатор кодека : isom
Размер файла : 1,42 Гбайт
Продолжительность : 1 ч. 53 м.
Режим общего битрейта : Переменный
Общий поток : 1791 Кбит/сек
Дата кодирования : UTC 1970-01-01 00:00:00
Дата пометки : UTC 1970-01-01 00:00:00
Программа кодирования : Lavf52.34.0
Видео
Идентификатор : 1
Формат : MPEG-4 Visual
Профиль формата : [email protected]
Параметр BVOP формата : Нет
Параметр QPel формата : Нет
Параметр GMC формата : Без точки перехода
Параметр матрицы формата : Default (H.263)
Идентификатор кодека : 20
Продолжительность : 1 ч. 53 м.
Битрейт : 1634 Кбит/сек
Ширина : 720 пикселей
Высота : 576 пикселей
Соотношение сторон : 5:4
Режим частоты кадров : Постоянный
Частота кадров : 25,000 кадров/сек
Стандарт вещания : PAL
Цветовое пространство : YUV
Субдискретизация насыщенности : 4:2:0
Битовая глубина : 8 бит
Тип развёртки : Прогрессивная
Метод сжатия : С потерями
Бит/(Пиксели*Кадры) : 0.158
Размер потока : 1,29 Гбайт (91%)
Библиотека кодирования : Lavc52.30.1
Дата кодирования : UTC 1970-01-01 00:00:00
Дата пометки : UTC 1970-01-01 00:00:00
Аудио
Идентификатор : 2
Формат : AAC
Формат/Информация : Advanced Audio Codec
Профиль формата : LC
Идентификатор кодека : 40
Продолжительность : 1 ч. 53 м.
Вид битрейта : Переменный
Битрейт : 152 Кбит/сек
Каналы : 2 канала
Расположение каналов : Front: L R
Частота : 44,1 КГц
Метод сжатия : С потерями
Размер потока : 123 Мбайт (8%)
Дата кодирования : UTC 1970-01-01 00:00:00
Дата пометки : UTC 1970-01-01 00:00:00

Скринлист

Скриншоты

                                   
 
Similar theme
Forum Topic Author Torrent Replies Last Post
./templates/default/images/folder_dl.gif Компьютерная литература Владимир Гололобов | Компьютер в лаборатории радиолюбителя (2018) [DJVU] Anonymous
1 | 0

0 | 1016

13

2018-07-02 15:13
Anonymous Latest
Display posts from previous:    
Reply to topic

The time now is: Today 18:23

All times are GMT + 3 Hours



You cannot post new topics in this forum
You cannot reply to topics in this forum
You cannot edit your posts in this forum
You cannot delete your posts in this forum
You cannot vote in polls in this forum
You cannot attach files in this forum
You cannot download files in this forum