Сегодня идет свободное скачивание без начисления Download

Зверопой / Sing (Кристоф Лурделе, Гарт Дженнингс) [2016, мультфильм, комедия, семейный, музыка, BDRip 1080p] DUB | Лицензия

Ответить на тему
 
Автор
Сообщение

Theseus ®

Пол:

Стаж: 6 лет 5 месяцев

Сообщений: 1347

Торрент-статистика

Пост 17-Апр-2017 22:11

[Цитировать]

Зверопой / Sing- Страна: США
Жанр: мультфильм, комедия, семейный, музыка
Год выпуска: 2016
Премьера (РФ): 2017
Продолжительность: 01:47:53
Перевод: Профессиональный (полное дублирование) | R5 | Лицензия
Режиссер: Кристоф Лурделе, Гарт Дженнингс-В ролях: Мэттью МакКонахи, Риз Уизерспун, Сет МакФарлейн, Скарлетт Йоханссон, Джон Си Райли, Тэрон Эджертон, Тори Келли, Дженнифер Сондерс, Дженнифер Хадсон, Гарт Дженнингс-Описание: В мире, который населяют звери, коала по имени Бастер Мун изо всех сил пытается предотвратить закрытие своего театра. В итоге Бастер и его друг, баран Эдди, устраивают конкурс певцов, предлагая принять участие каждому жителю города.- -Качество: BDRip 1080p
Формат: MKV
Видео кодек: x.264
Аудио кодек: AC3
Видео: 1920x1038 (1,85:1), 23.976 fps, MPEG-4 AVC, 10 Mbps avg, 0.210 bit/pixel
Аудио 1: AC3, 48 kHz, 6 ch, ~384.00 kbps avg | русский
Аудио 2: АС3, 48 kHz, 6 ch, ~640.00 kbps avg | английский
Субтитры: Русские (полные), английские (full, SDH)-

MediaInfo

x264 [info]: frame I:2077 Avg QP:17.56 size:234522
x264 [info]: frame P:29676 Avg QP:19.54 size:112517
x264 [info]: frame B:123460 Avg QP:21.84 size: 34687
Формат : Matroska
Версия формата : Version 4 / Version 2
Размер файла : 8,33 Гбайт
Продолжительность : 1 ч. 47 м.
Общий поток : 11,0 Мбит/сек
Название фильма : Sing.2016.x264.BDRip.1080p.BLUEBIRD
Дата кодирования : UTC 2017-04-16 11:17:05
Программа кодирования : mkvmerge v7.9.0 ('Birds') 32bit
Библиотека кодирования : libebml v1.3.1 + libmatroska v1.4.2
Видео
Идентификатор : 1
Формат : AVC
Формат/Информация : Advanced Video Codec
Профиль формата : High @ L4.1
Параметр CABAC формата : Да
Параметр ReFrames формата : 4 кадра
Идентификатор кодека : V_MPEG4/ISO/AVC
Продолжительность : 1 ч. 47 м.
Битрейт : 10,0 Мбит/сек
Ширина : 1920 пикселей
Высота : 1038 пикселей
Соотношение сторон : 1,85:1
Режим частоты кадров : Постоянный
Частота кадров : 23,976 (24000/1001) кадра/сек
Цветовое пространство : YUV
Субдискретизация насыщенности : 4:2:0
Битовая глубина : 8 бит
Тип развёртки : Прогрессивная
Бит/(Пиксели*Кадры) : 0.210
Размер потока : 7,55 Гбайт (91%)
Заголовок : Sing.2016.x264.BDRip.1080p.BLUEBIRD
Библиотека кодирования : x264 core 148 r2762+56 6284cf3 t_mod_Custom [[email protected] X86]
Настройки программы : cabac=1 / ref=4 / deblock=1:-3:-3 / analyse=0x3:0x133 / me=umh / subme=10 / psy=1 / fade_compensate=0.00 / psy_rd=1.02:0.04 / mixed_ref=1 / me_range=32 / chroma_me=1 / trellis=2 / 8x8dct=1 / cqm=0 / deadzone=21,11 / fast_pskip=0 / chroma_qp_offset=-3 / threads=12 / lookahead_threads=1 / sliced_threads=0 / nr=0 / decimate=0 / interlaced=0 / bluray_compat=0 / constrained_intra=0 / fgo=0 / bframes=8 / b_pyramid=2 / b_adapt=1 / b_bias=0 / direct=3 / weightb=1 / open_gop=0 / weightp=2 / keyint=240 / keyint_min=23 / scenecut=40 / intra_refresh=0 / rc_lookahead=80 / rc=crf / mbtree=0 / crf=19.7000 / qcomp=0.80 / qpmin=0:0:0 / qpmax=69:69:69 / qpstep=4 / vbv_maxrate=62500 / vbv_bufsize=78125 / crf_max=0.0 / nal_hrd=none / filler=0 / ip_ratio=1.40 / pb_ratio=1.30 / aq=1:0.85 / aq-sensitivity=10.00 / aq-factor=1.00:1.00:1.00 / aq2=0 / aq3=0 / zones=144150,155212,q=26
Язык : English
Default : Да
Forced : Нет
Аудио #1
Идентификатор : 2
Формат : AC-3
Формат/Информация : Audio Coding 3
Параметр Endianness формата : Big
Идентификатор кодека : A_AC3
Продолжительность : 1 ч. 47 м.
Вид битрейта : Постоянный
Битрейт : 384 Кбит/сек
Каналы : 6 каналов
Расположение каналов : Front: L C R, Side: L R, LFE
Частота : 48,0 КГц
Частота кадров : 31,250 кадров/сек (1536 spf)
Битовая глубина : 16 бит
Метод сжатия : С потерями
Размер потока : 296 Мбайт (3%)
Заголовок : Дублированный (R5)
Язык : Russian
ServiceKind/String : Complete Main
Default : Да
Forced : Нет
Аудио #2
Идентификатор : 3
Формат : AC-3
Формат/Информация : Audio Coding 3
Параметр Endianness формата : Big
Идентификатор кодека : A_AC3
Продолжительность : 1 ч. 47 м.
Вид битрейта : Постоянный
Битрейт : 640 Кбит/сек
Каналы : 6 каналов
Расположение каналов : Front: L C R, Side: L R, LFE
Частота : 48,0 КГц
Частота кадров : 31,250 кадров/сек (1536 spf)
Битовая глубина : 16 бит
Метод сжатия : С потерями
Размер потока : 494 Мбайт (6%)
Язык : English
ServiceKind/String : Complete Main
Default : Нет
Forced : Нет
Текст #1
Идентификатор : 4
Формат : UTF-8
Идентификатор кодека : S_TEXT/UTF8
Идентификатор кодека/Информация : UTF-8 Plain Text
Продолжительность : 1 ч. 39 м.
Битрейт : 90 бит/сек
ElementCount : 1379
Размер потока : 65,5 Кбайт (0%)
Заголовок : full
Язык : Russian
Default : Нет
Forced : Нет
Текст #2
Идентификатор : 5
Формат : UTF-8
Идентификатор кодека : S_TEXT/UTF8
Идентификатор кодека/Информация : UTF-8 Plain Text
Продолжительность : 1 ч. 38 м.
Битрейт : 57 бит/сек
ElementCount : 1410
Размер потока : 41,2 Кбайт (0%)
Заголовок : full
Язык : English
Default : Нет
Forced : Нет
Текст #3
Идентификатор : 6
Формат : UTF-8
Идентификатор кодека : S_TEXT/UTF8
Идентификатор кодека/Информация : UTF-8 Plain Text
Продолжительность : 1 ч. 39 м.
Битрейт : 69 бит/сек
ElementCount : 1733
Размер потока : 50,6 Кбайт (0%)
Заголовок : SDH
Язык : English
Default : Нет
Forced : Нет
Меню
00:00:00.000 : :00:00:00.000
00:04:29.352 : :00:04:29.352
00:10:36.469 : :00:10:36.469
00:14:04.677 : :00:14:04.677
00:18:32.653 : :00:18:32.653
00:25:14.722 : :00:25:14.722
00:30:04.052 : :00:30:04.052
00:35:11.776 : :00:35:11.776
00:40:07.405 : :00:40:07.405
00:44:36.132 : :00:44:36.132
00:50:26.649 : :00:50:26.649
00:55:36.208 : :00:55:36.208
01:04:40.710 : :01:04:40.710
01:14:03.981 : :01:14:03.981
01:19:17.962 : :01:19:17.962
01:23:59.159 : :01:23:59.159
01:26:56.461 : :01:26:56.461
01:30:38.266 : :01:30:38.266
01:34:47.181 : :01:34:47.181
01:40:16.010 : :01:40:16.010
-    - - -

_________________
Вне форума [Профиль] [ЛС]
Показать сообщения:    
Ответить на тему

Текущее время: Сегодня 02:15

Часовой пояс: GMT + 3



Вы не можете начинать темы
Вы не можете отвечать на сообщения
Вы не можете редактировать свои сообщения
Вы не можете удалять свои сообщения
Вы не можете голосовать в опросах
Вы не можете прикреплять файлы к сообщениям
Вы не можете скачивать файлы