Сегодня идет свободное скачивание без начисления Download

Изгоняющий дьявола / The Exorcist (Уильям Фридкин) [1973 г., ужасы, драма, DVDRip-AVC]

Ответить на тему
 
Автор
Сообщение

Jurchic ®

Стаж: 5 лет 1 месяц

Сообщений: 50

Откуда: такое любопытство

Торрент-статистика

Пост 08-Окт-2012 02:48

[Цитировать]

Изгоняющий дьявола / The Exorcist (1973) DVDRip[H.264]
«Никто не ожидал его, никто не верил ему, и никто не мог остановить его. Одна надежда, единственная надежда: ЗАКЛИНАТЕЛЬ, ИЗГОНЯЮЩИЙ БЕСА»
-- Год выпуска: 1973
Страна: США
Жанр: ужасы, драма
Продолжительность: 02:06:42
Перевод: Профессиональный(дублированный)
Режиссер: Уильям Фридкин
Продюссер: Уильям Питер Блэтти, Ноэль Маршалл, Дэвид Салвен
Сценарий: Уильям Питер Блэтти
В ролях: Эллен Бёрстин, Макс фон Сюдов, Линда Блэр, Ли Дж. Кобб, Джейсон Миллер, Китти Уинн, Джек МакГоурэн, Уильям О’Мэлли, Бартон Хейман, Питер Мастерсон
Бюджет: $12 000 000
Премьера в мире: 19 июня 1973
--Описание: В семью известной актрисы приходит беда — ее несовершеннолетняя дочь начинает вести себя неадекватным образом. Мать полагает, что это следствие ее личной трагедии, врачи подозревают психическое заболевание и не в силах поставить диагноз. Специально приглашенный священник подозревает, что девочка одержима дьяволом.
Однако, в современном атеистическом мире никто уже не верит в то, что человек может быть одержим нечистым духом, даже сама церковь.
Тем не менее, из Азии Ватиканом вызывается последний оставшийся в живых экзорсист («изгоняющий дьявола») отец Ланкастер Меррин, который приезжает, не зная о том, что идет навстречу своей смерти…--релиз на DVD: 26 октября 2010, «Юниверсал Пикчерс Рус»
Качество: DVDRip-AVC
Формат: MKV
Видео кодек: MPEG-4 AVC/H.264
Аудио кодек: AC3
Видео: 1906 Кбит/сек, 960х542 , 25,000 к/сек, AVC
Аудио: 384 Кбит/сек, 48,0 КГц, 6 каналов, 16 бит, AC-3

MediaInfo:

Код:
Общее
Уникальный идентификатор                 : 209706044877054637743644238880141243735 (0x9DC3EA4645C2C43383F1D14CA6AC7557)
Полное имя                               : :\\Exorcist.mkv
Формат                                   : Matroska
Версия формата                           : Version 2
Размер файла                             : 2,07 Гбайт
Продолжительность                        : 2 ч. 6 м.
Общий поток                              : 2336 Кбит/сек
Название фильма                          : Exorcist.DVDRip
Дата кодирования                         : UTC 2012-10-03 15:28:58
Программа кодирования                    : DVDFab
Библиотека кодирования                   : libebml v0.7.8 + libmatroska v0.8.1
Видео
Идентификатор                            : 3
Формат                                   : AVC
Формат/Информация                        : Advanced Video Codec
Профиль формата                          : [email protected]
Параметр CABAC формата                   : Да
Параметр ReFrames формата                : 2 кадра
Идентификатор кодека                     : V_MPEG4/ISO/AVC
Продолжительность                        : 2 ч. 6 м.
Битрейт                                  : 1906 Кбит/сек
Ширина                                   : 960 пикселей
Высота                                   : 542 пикселя
Соотношение сторон                       : 16:9
Частота кадров                           : 25,000 кадров/сек
Цветовое пространство                    : YUV
Субдискретизация насыщенности            : 4:2:0
Битовая глубина                          : 8 бит
Тип развёртки                            : Прогрессивная
Бит/(Пиксели*Кадры)                      : 0.147
Размер потока                            : 1,69 Гбайт (82%)
Библиотека кодирования                   : x264 core
Default                                  : Нет
Forced                                   : Нет
Основные цвета                           : BT.601-6 525, BT.1358 525, BT.1700 NTSC, SMPTE 170M
Характеристики трансфера                 : BT.709-5, BT.1361
Коэффициенты матрицы                     : BT.601-6 525, BT.1358 525, BT.1700 NTSC, SMPTE 170M
Аудио
Идентификатор                            : 4
Формат                                   : AC-3
Формат/Информация                        : Audio Coding 3
Расширение режима                        : CM (complete main)
Параметр Endianness формата              : Big
Идентификатор кодека                     : A_AC3
Продолжительность                        : 2 ч. 6 м.
Вид битрейта                             : Постоянный
Битрейт                                  : 384 Кбит/сек
Каналы                                   : 6 каналов
Расположение каналов                     : Front: L C R, Side: L R, LFE
Частота                                  : 48,0 КГц
Битовая глубина                          : 16 бит
Метод сжатия                             : С потерями
Размер потока                            : 348 Мбайт (16%)
Default                                  : Нет
Forced                                   : Нет
         

Скриншоты:

                     
Вне форума [Профиль] [ЛС]
Показать сообщения:    
Ответить на тему

Текущее время: Сегодня 05:10

Часовой пояс: GMT + 3



Вы не можете начинать темы
Вы не можете отвечать на сообщения
Вы не можете редактировать свои сообщения
Вы не можете удалять свои сообщения
Вы не можете голосовать в опросах
Вы не можете прикреплять файлы к сообщениям
Вы не можете скачивать файлы